Поиск

2015 Jan Prax Quartett - Keepin' a Style Alive {ACT Music} [24-96]

2015 Jan Prax Quartett - Keepin' a Style Alive {ACT Music} [24-96]
Издатель (лейбл):
Номер по каталогу:
ACT 9674-2
Носитель:
WEB
Формат:
PCM
Тип рипа:
tracks
Контейнер:
FLAC (*.flac)
Количество каналов:
2.0
Разрядность/ЧД:
24/96
Формат записи/Источник записи:
[TR24][OF]
Время звучания:
00:49:25
Наличие сканов:
только обложка
Наличие водяных знаков:
нет
Страна-производитель диска (релиза):
Germany
Релизёр (источник):
M0p94ok

Треклист:

01. 20 Dollars  06:26
02. Morning Dawn  05:10
03. Trane's Ride  05:36
04. The Journey  04:15
05. 001  05:05
06. Is That Right?  04:39
07. Keepin' a Style Alive  03:27
08. Shades of Autumn  06:30
09. Serious Business  04:26
10. Got a Crush On You  03:47

Лог проверки качества
foobar2000 1.4.3 / Dynamic Range Meter 1.1.1
log date: 2020-03-18 17:34:38

--------------------------------------------------------------------------------
Analyzed: Jan Prax Quartett / Keepin' a Style Alive
--------------------------------------------------------------------------------

DR         Peak         RMS     Duration Track
--------------------------------------------------------------------------------
DR11      -0.32 dB   -13.17 dB      6:26 01-20 Dollars
DR12      -0.32 dB   -13.85 dB      5:10 02-Morning Dawn
DR8       -0.32 dB   -10.87 dB      5:36 03-Trane's Ride
DR10      -0.32 dB   -12.26 dB      4:16 04-The Journey
DR10      -0.32 dB   -12.03 dB      5:06 05-001
DR11      -0.32 dB   -12.97 dB      4:39 06-Is That Right?
DR9       -0.32 dB   -11.30 dB      3:28 07-Keepin' a Style Alive
DR14      -0.60 dB   -17.58 dB      6:30 08-Shades of Autumn
DR10      -0.32 dB   -11.71 dB      4:27 09-Serious Business
DR12      -0.32 dB   -13.61 dB      3:48 10-Got a Crush On You
--------------------------------------------------------------------------------

Number of tracks:  10
Official DR value: DR11

Samplerate:        96000 Hz
Channels:          2
Bits per sample:   24
Bitrate:           2976 kbps
Codec:             FLAC
================================================================================
Приватный:
Нет (DHT включён)
Размер:
1.03 Гб (1,108,698,165 байт) » файлов: 13
Участники:
5 раздают, 0 качают (5 участников всего)
Внешние участники:
--- [ Обновить ]
Есть вопросы - пишите личное сообщение пользователю M0p94ok.
17:59
28
Нет комментариев. Ваш будет первым!