Поиск

2020 Viktoria Tolstoy - Stations {ACT Music} [24-96]

2020 Viktoria Tolstoy - Stations {ACT Music} [24-96]
Стили:
Издатель (лейбл):
Номер по каталогу:
ACT 9740-2
Треклист:

01. I Should Run (4:19)
02. Stations (4:30)
03. The Mind Is Free (4:37)
04. Land of the Humble (3:57)
05. Million Miles (5:14)
06. The Streets of Berlin (4:53)
07. Old Country (6:00)
08. The Great City (3:58)
09. Where the Road Ends (3:56)
10. Poinciana (4:08)
11. Here's to Life (4:56)

Доп. инфо:

Формат записи/Источник записи: [TR24][OF]
Наличие водяных знаков: Нет
Год издания: 2020
Продолжительность: 00:50:28
Наличие сканов в содержимом раздачи: Буклет PDF
Контейнер: FLAC (*.flac)
Тип рипа: tracks
Разрядность: 24/96
Формат: PCM
Количество каналов: 2.0
Источник (релизер): highresaudio.com

Лог проверки качества
foobar2000 1.4.8 / Dynamic Range Meter 1.1.1
log date: 2020-01-29 23:19:25

--------------------------------------------------------------------------------
Analyzed: Viktoria Tolstoy / Stations
--------------------------------------------------------------------------------

DR         Peak         RMS     Duration Track
--------------------------------------------------------------------------------
DR8       -1.00 dB    -9.79 dB      4:19 01-I Should Run
DR8       -1.00 dB   -11.76 dB      4:30 02-Stations
DR8       -1.00 dB   -11.47 dB      4:37 03-The Mind Is Free
DR9       -1.00 dB   -11.86 dB      3:57 04-Land of the Humble
DR8       -1.00 dB   -10.98 dB      5:14 05-Million Miles
DR10      -1.00 dB   -13.86 dB      4:53 06-The Streets of Berlin
DR8       -1.00 dB   -11.41 dB      6:00 07-Old Country
DR7       -1.00 dB   -10.23 dB      3:58 08-The Great City
DR10      -1.00 dB   -12.89 dB      3:56 09-Where the Road Ends
DR8       -1.00 dB   -11.07 dB      4:08 10-Poinciana
DR12      -1.00 dB   -17.14 dB      4:56 11-Here's to Life
--------------------------------------------------------------------------------

Number of tracks:  11
Official DR value: DR9
Samplerate:        96000 Hz
Channels:          2
Bits per sample:   24
Bitrate:           2540 kbps
Codec:             FLAC
================================================================================
Приватный:
Нет (DHT включён)
Размер:
1021.42 Мб (1,071,032,902 байт) » файлов: 14
Участники:
1 раздают, 0 качают (1 участников всего)
Внешние участники:
26 раздают, 8 качают (34 участников всего) [ Обновить ]
Есть вопросы - пишите личное сообщение пользователю M0p94ok.
22:11
11
Нет комментариев. Ваш будет первым!