Поиск

1994 Yanni - Live at the Acropolis - 25th Anniversary Deluxe Edition (2018) {Private} [24-44,1]

1994 Yanni - Live at the Acropolis - 25th Anniversary Deluxe Edition (2018) {Private} [24-44,1]
Издание:
Deluxe edition
Дата записи диска:
25 сентября 1993
Носитель:
WEB
Формат:
PCM
Тип рипа:
tracks
Контейнер:
FLAC (*.flac)
Количество каналов:
2.0
Разрядность/ЧД:
24/44,1
Формат записи/Источник записи:
[TR24][OF]
Время звучания:
01:19:48
Наличие сканов:
только обложка
Наличие водяных знаков:
нет
Релизёр (источник):
M0p94ok
Треклист:

01. Santorini (Remastered)  06:57
02. Keys to Imagination (Remastered)  07:31
03. Felitsa (Bonus Track) (Remastered)  05:03
04. The Rain Must Fall (Remastered)  07:50
05. Until the Last Moment (Remastered)  06:45
06. Acroyali (Remastered)  02:00
07. Standing in Motion (Remastered)  06:29
08. One Man's Dream (Remastered)  03:32
09. Within Attraction (Remastered)  07:42
10. Nostalgia (Remastered)  05:48
11. The End of August (Bonus Track) (Remastered)  03:50
12. Swept Away (Remastered)  06:53
13. Reflections of Passion (Remastered)  04:50
14. Aria (Bonus Track) (Remastered)  04:38

Лог проверки качества
foobar2000 1.4.3 / Dynamic Range Meter 1.1.1
log date: 2020-03-19 00:08:07

--------------------------------------------------------------------------------
Analyzed: Yanni / Yanni - Live at the Acropolis - 25th Anniversary Deluxe Edition
--------------------------------------------------------------------------------

DR         Peak         RMS     Duration Track
--------------------------------------------------------------------------------
DR9       -0.09 dB   -12.88 dB      6:57 01-Santorini (Remastered)
DR8        0.00 dB   -10.63 dB      7:31 02-Keys to Imagination (Remastered)
DR10      -0.61 dB   -13.08 dB      5:03 03-Felitsa (Bonus Track) (Remastered)
DR8       -0.01 dB   -10.74 dB      7:50 04-The Rain Must Fall (Remastered)
DR9       -0.44 dB   -12.82 dB      6:45 05-Until the Last Moment (Remastered)
DR11      -0.62 dB   -15.25 dB      2:01 06-Acroyali (Remastered)
DR9       -0.07 dB   -10.83 dB      6:30 07-Standing in Motion (Remastered)
DR9       -0.29 dB   -12.24 dB      3:33 08-One Man's Dream (Remastered)
DR9        0.00 dB   -11.31 dB      7:42 09-Within Attraction (Remastered)
DR7        0.00 dB   -10.69 dB      5:48 10-Nostalgia (Remastered)
DR12      -0.70 dB   -14.14 dB      3:51 11-The End of August (Bonus Track) (Remastered)
DR7        0.00 dB    -9.35 dB      6:54 12-Swept Away (Remastered)
DR8        0.00 dB   -12.09 dB      4:51 13-Reflections of Passion (Remastered)
DR7        0.00 dB    -8.28 dB      4:39 14-Aria (Bonus Track) (Remastered)
--------------------------------------------------------------------------------

Number of tracks:  14
Official DR value: DR9

Samplerate:        44100 Hz
Channels:          2
Bits per sample:   24
Bitrate:           1779 kbps
Codec:             FLAC
================================================================================
Приватный:
Нет (DHT включён)
Размер:
951.92 Мб (998,165,584 байт) » файлов: 17
Участники:
3 раздают, 0 качают (3 участников всего)
Внешние участники:
--- [ Обновить ]
Есть вопросы - пишите личное сообщение пользователю M0p94ok.
11:11
17
Нет комментариев. Ваш будет первым!