Поиск

2020 Lou Tavano - Uncertain Weather {L'Un L'Une} [24-48]

2020 Lou Tavano - Uncertain Weather {L'Un L'Une} [24-48]
Стили:
Место записи:
Studios Ferber

Треклист:

01 - As One (04:21)
02 - Simple Ways to Be (04:05)
03 - The Dancer (04:38)
04 - As We Part (05:12)
05 - You See Me Now (03:32)
06 - Memories of Tomorrow (04:56)
07 - J'attends (03:54)
08 - Le fil de la vie (04:38)
09 - Uncertain Weather (05:31)

Доп. инфо:

• Формат записи | Источник записи: [TR24][OF]
• Наличие водяных знаков: Нет
• Год издания релиза: 2020
• Продолжительность: 00:40:53
• Источник: internet
• WEB релиз: ссылка
• Контейнер: FLAC (*.flac)
• Тип рипа: tracks
• Разрядность: 24/48
• Формат: WAV (flac.ape.wv)
• Количество каналов: 2.0
• Наличие сканов: booklet

Лог проверки качества
foobar2000 1.4.2 / Dynamic Range Meter 1.1.1
log date: 2020-01-29 22:55:05

--------------------------------------------------------------------------------
Analyzed: Lou Tavano / Uncertain Weather
--------------------------------------------------------------------------------

DR         Peak         RMS     Duration Track
--------------------------------------------------------------------------------
DR7       -0.50 dB   -11.88 dB      4:22 01-As One
DR9       -0.50 dB   -13.59 dB      4:06 02-Simple Ways to Be
DR7       -0.50 dB   -10.14 dB      4:39 03-The Dancer
DR9       -0.50 dB   -13.92 dB      5:13 04-As We Part
DR7       -0.50 dB   -12.02 dB      3:33 05-You See Me Now
DR7       -0.50 dB   -12.16 dB      4:57 06-Memories of Tomorrow
DR8       -0.50 dB   -12.62 dB      3:55 07-J'attends
DR8       -0.50 dB   -13.21 dB      4:39 08-Le fil de la vie
DR10      -0.63 dB   -15.56 dB      5:32 09-Uncertain Weather
--------------------------------------------------------------------------------

Number of tracks:  9
Official DR value: DR8

Samplerate:        48000 Hz
Channels:          2
Bits per sample:   24
Bitrate:           1395 kbps
Codec:             FLAC
================================================================================
Приватный:
Нет (DHT включён)
Размер:
447.92 Мб (469,675,555 байт) » файлов: 11
Участники:
2 раздают, 1 качают (3 участников всего)
Внешние участники:
12 раздают, 4 качают (16 участников всего) [ Обновить ]
Скорость:
128.69 Кб/c 0/c
Есть вопросы - пишите личное сообщение пользователю M0p94ok.
16:17
39
Нет комментариев. Ваш будет первым!