Поиск

2015 Wolfgang Haffner - Kind of Cool {ACT 9576-2} [24-88,2]

2015 Wolfgang Haffner - Kind of Cool {ACT 9576-2} [24-88,2]
Дата издания диска:
27 февраля 2015
Номер по каталогу:
ACT 9576-2
Носитель:
WEB
Формат:
PCM
Тип рипа:
tracks
Контейнер:
FLAC (*.flac)
Количество каналов:
2.0
Разрядность/ЧД:
24/88,2
Формат записи/Источник записи:
[TR24][OF]
Время звучания:
01:00:17
Наличие сканов:
буклет pdf
Наличие водяных знаков:
нет
Релизёр (источник):
M0p94ok
Треклист:

01. Hippie  05:38
02. So What  07:21
03. Piano Man  05:04
04. Autumn Leaves  04:05
05. Tantricity  03:20
06. Summertime  05:25
07. My Funny Valentine  07:02
08. One for Daddy O  06. 28
09. I Fall in Love Too Easily  05:56
10. Django  05:02
11. Remembrance  04:56

Лог проверки качества
foobar2000 1.3.16 / Dynamic Range Meter 1.1.1
log date: 2018-12-15 17:23:27

--------------------------------------------------------------------------------
Analyzed: Wolfgang Haffner, Roberto Di Gioa / Kind of Cool
--------------------------------------------------------------------------------

DR         Peak         RMS     Duration Track
--------------------------------------------------------------------------------
DR10      -0.20 dB   -12.76 dB      5:39 01-Hippie
DR11      -0.20 dB   -13.64 dB      7:22 02-So What
DR11      -0.20 dB   -14.46 dB      5:04 03-Piano Man
DR11      -0.20 dB   -13.15 dB      4:06 04-Autumn Leaves
DR10      -0.20 dB   -12.76 dB      3:20 05-Tantricity
DR10      -0.20 dB   -12.20 dB      5:25 06-Summertime
DR10      -0.20 dB   -13.21 dB      7:02 07-My Funny Valentine
DR10      -0.20 dB   -12.36 dB      6:28 08-One for Daddy O
DR12      -0.20 dB   -14.20 dB      5:57 09-I Fall in Love Too Easily
DR12      -0.20 dB   -14.81 dB      5:03 10-Django
DR12      -0.20 dB   -14.54 dB      4:57 11-Remembrance
--------------------------------------------------------------------------------

Number of tracks:  11
Official DR value: DR11

Samplerate:        88200 Hz
Channels:          2
Bits per sample:   24
Bitrate:           2706 kbps
Codec:             FLAC
================================================================================
Приватный:
Нет (DHT включён)
Размер:
1.12 Гб (1,199,020,345 байт) » файлов: 15
Участники:
5 раздают, 1 качают (6 участников всего)
Внешние участники:
--- [ Обновить ]
Есть вопросы - пишите личное сообщение пользователю M0p94ok.
10:45
35
Нет комментариев. Ваш будет первым!