Поиск

2020 Olivier Ker Ourio - Singular Insularity {Bonsaï Music} [24-48]

2020 Olivier Ker Ourio - Singular Insularity {Bonsaï Music} [24-48]
Стили:
Треклист:

01. Kossassa (4:33)
02. Payanké (4:29)
03. Zenfants la Creuse (4:33)
04. Singular Insularity (4:52)
05. Soufflèr (5:52)
06. La Beaumarchais (5:11)
07. Ti Bird (4:50)
08. Largue pa tienbo (5:08)
09. Ralé-Poussé (6:06)
10. À bord du Zeta (5:51)

Доп. инфо:

• Формат записи | Источник записи: [TR24][OF]
• Наличие водяных знаков: Нет
• Год издания релиза: 2020
• Лейбл: Bonsaï Music
• Продолжительность: 00:51:25
• Источник: internet
• WEB релиз: ссылка
• Контейнер: FLAC (*.flac)
• Тип рипа: tracks
• Разрядность: 24/48
• Формат: WAV (flac.ape.wv)
• Количество каналов: 2.0
• Наличие сканов: booklet

Лог проверки качества
foobar2000 1.4.2 / Dynamic Range Meter 1.1.1
log date: 2020-01-29 23:00:21

--------------------------------------------------------------------------------
Analyzed: Olivier Ker Ourio / Singular Insularity
--------------------------------------------------------------------------------

DR         Peak         RMS     Duration Track
--------------------------------------------------------------------------------
DR9        0.00 dB   -10.23 dB      4:33 01-Kossassa
DR8        0.00 dB    -9.62 dB      4:29 02-Payanké
DR9        0.00 dB   -10.96 dB      4:33 03-Zenfants la Creuse
DR8        0.00 dB    -9.03 dB      4:52 04-Singular Insularity
DR10      -0.01 dB   -11.99 dB      5:52 05-Soufflèr
DR10       0.00 dB   -11.36 dB      5:11 06-La Beaumarchais
DR9        0.00 dB   -11.01 dB      4:50 07-Ti Bird
DR9       -0.01 dB   -11.30 dB      5:08 08-Largue pa tienbo
DR8        0.00 dB    -9.18 dB      6:06 09-Ralé-Poussé
DR9        0.00 dB   -10.37 dB      5:51 10-À bord du Zeta
--------------------------------------------------------------------------------

Number of tracks:  10
Official DR value: DR9

Samplerate:        48000 Hz
Channels:          2
Bits per sample:   24
Bitrate:           1696 kbps
Codec:             FLAC
================================================================================
Приватный:
Нет (DHT включён)
Размер:
636.50 Мб (667,414,465 байт) » файлов: 12
Участники:
2 раздают, 0 качают (2 участников всего)
Внешние участники:
5 раздают, 1 качают (6 участников всего) [ Обновить ]
Есть вопросы - пишите личное сообщение пользователю M0p94ok.
13:08
24
Нет комментариев. Ваш будет первым!