Поиск

2019 Rhoda Scott - Movin'Blues {Sunset} [24-48]

2019 Rhoda Scott - Movin'Blues {Sunset} [24-48]
Стили:
Номер по каталогу:
AD5831C

Треклист:

01. Blue Law  04:12
02. Movin'Blues  05:16
03. Come Sunday  05:12
04. Blues at the Pinthière  05:42
05. Caravan  05:51
06. Dans ma vie  03:52
07. Honeysuckle Rose  04:42
08. Watch What Happens  05:36
09. I'm Looking for a Miracle  06:55
10. Let My People Go  06:35
11. Prière  05:24
12. Yes Indeed  03:44
13. Fais comme l'oiseau  03:35
14. In a Sentimental Mood  04:54

Доп. инфо:

• Формат записи | Источник записи: [TR24][OF]
• Наличие водяных знаков: Нет
• Год издания релиза: 2019 (2020)
• Лейбл: Sunset Records
• Продолжительность: 01:11:35
• Источник: internet
• WEB релиз: ссылка
• Контейнер: FLAC (*.flac)
• Тип рипа: tracks
• Разрядность: 24/48
• Формат: PCM
• Количество каналов: 2.0
• Наличие сканов: front

Лог проверки качества
foobar2000 1.4.2 / Dynamic Range Meter 1.1.1
log date: 2020-01-29 23:37:59

--------------------------------------------------------------------------------
Analyzed: Rhoda Scott / Movin'Blues
--------------------------------------------------------------------------------

DR         Peak         RMS     Duration Track
--------------------------------------------------------------------------------
DR9        0.00 dB   -10.77 dB      4:12 01-Blue Law
DR8        0.00 dB   -10.03 dB      5:16 02-Movin'Blues
DR10       0.00 dB   -11.44 dB      5:13 03-Come Sunday
DR7        0.00 dB    -9.18 dB      5:43 04-Blues at the Pinthière
DR10       0.00 dB   -11.06 dB      5:51 05-Caravan
DR9        0.00 dB   -10.77 dB      3:53 06-Dans ma vie
DR9        0.00 dB   -10.45 dB      4:42 07-Honeysuckle Rose
DR11       0.00 dB   -13.31 dB      5:37 08-Watch What Happens
DR10       0.00 dB   -11.62 dB      6:55 09-I'm Looking for a Miracle
DR10       0.00 dB   -11.39 dB      6:35 10-Let My People Go
DR10       0.00 dB   -12.13 dB      5:24 11-Prière
DR10       0.00 dB   -10.97 dB      3:44 12-Yes Indeed
DR9        0.00 dB   -10.58 dB      3:35 13-Fais comme l'oiseau
DR11       0.00 dB   -12.97 dB      4:54 14-In a Sentimental Mood
--------------------------------------------------------------------------------

Number of tracks:  14
Official DR value: DR10

Samplerate:        48000 Hz
Channels:          2
Bits per sample:   24
Bitrate:           1714 kbps
Codec:             FLAC
================================================================================
Приватный:
Нет (DHT включён)
Размер:
890.10 Мб (933,342,183 байт) » файлов: 15
Участники:
8 раздают, 2 качают (10 участников всего)
Внешние участники:
7 раздают, 2 качают (9 участников всего) [ Обновить ]
Скорость:
229.16 Кб/c 0/c
Есть вопросы - пишите личное сообщение пользователю M0p94ok.
13:26
20
Нет комментариев. Ваш будет первым!