Поиск

2020 The Westerlies - Wherein Lies the Good {Westerlies} [24-192]

2020 The Westerlies - Wherein Lies the Good {Westerlies} [24-192]
Стили:
Дата записи диска:
15-19 октября 2018
Место записи:
Lethe Lounge, NYC
Треклист:

01. Robert Henry 05:22    
02. In the Mornin' 03:00    
03. Weeping Mary 03:23    
04. Wherein Lies the Good 14:37    
05. Golden Gate Gospel Train 01:53    
06. Travelin' Shoes 01:44    
07. Remember Me 01:46    
08. Born Ten Thousand Years Ago 01:11    
09. Do Unto Others 02:34    
10. The Kiss 04:19    
11. From the Very First Time 03:09    
12. Laurie 02:39    
13. Eli 01:58    
14. Chickendog and Woodylocks 02:21    
15. Memories 04:19    
16. Entropy: Part I 01:26    
17. Entropy: Part II 06:02    
18. Entropy: Part III 02:54

Доп. инфо:

• Формат записи | Источник записи: [TR24][OF]
• Наличие водяных знаков: Нет
• Год издания релиза: 2020
• Лейбл: Westerlies Records
• Продолжительность: 01:04:44
• Источник: internet
• WEB релиз: ссылка
• Контейнер: FLAC (*.flac)
• Тип рипа: tracks
• Разрядность: 24/192
• Формат: PCM
• Количество каналов: 2.0
• Наличие сканов: front

Лог проверки качества
foobar2000 1.4.2 / Dynamic Range Meter 1.1.1
log date: 2020-01-30 06:49:53

--------------------------------------------------------------------------------
Analyzed: The Westerlies / Wherein Lies the Good
--------------------------------------------------------------------------------

DR         Peak         RMS     Duration Track
--------------------------------------------------------------------------------
DR9       -0.10 dB   -12.19 dB      5:23 01-Robert Henry
DR10      -0.12 dB   -14.83 dB      3:01 02-In the Mornin'
DR7       -0.10 dB    -9.70 dB      3:24 03-Weeping Mary
DR10      -0.11 dB   -12.67 dB     14:38 04-Wherein Lies the Good
DR11      -0.10 dB   -13.56 dB      1:53 05-Golden Gate Gospel Train
DR9       -0.11 dB   -11.81 dB      1:44 06-Travelin' Shoes
DR10      -0.11 dB   -14.86 dB      1:47 07-Remember Me
DR7       -0.28 dB    -9.46 dB      1:11 08-Born Ten Thousand Years Ago
DR11      -0.30 dB   -14.48 dB      2:34 09-Do Unto Others
DR10      -0.11 dB   -14.65 dB      4:20 10-The Kiss
DR10      -0.10 dB   -14.26 dB      3:09 11-From the Very First Time
DR10      -0.11 dB   -13.82 dB      2:39 12-Laurie
DR9       -0.10 dB   -12.41 dB      1:58 13-Eli
DR10      -0.10 dB   -12.91 dB      2:21 14-Chickendog and Woodylocks
DR10      -0.11 dB   -13.93 dB      4:19 15-Memories
DR10      -0.10 dB   -11.69 dB      1:27 16-Entropy, Pt. 1
DR10      -0.10 dB   -14.08 dB      6:02 17-Entropy, Pt. 2
DR10      -1.30 dB   -15.25 dB      2:54 18-Entropy, Pt. 3
--------------------------------------------------------------------------------

Number of tracks:  18
Official DR value: DR9

Samplerate:        192000 Hz
Channels:          2
Bits per sample:   24
Bitrate:           5064 kbps
Codec:             FLAC
================================================================================
Приватный:
Нет (DHT включён)
Размер:
2.16 Гб (2,316,965,313 байт) » файлов: 19
Участники:
3 раздают, 0 качают (3 участников всего)
Внешние участники:
3 раздают, 1 качают (4 участников всего) [ Обновить ]
Есть вопросы - пишите личное сообщение пользователю M0p94ok.
22:16
25
Нет комментариев. Ваш будет первым!