Вы используете незарегистрированную версию компонента "Вкладки"!

Поиск

2020 Giacomo Bondi & Millie Myne - L4LOVE {GBMUSIC} [24-44,1-48]

2020 Giacomo Bondi & Millie Myne - L4LOVE {GBMUSIC} [24-44,1-48]
Стили:
Доп. инфо:

• Формат записи | Источник записи: [TR24][OF]
• Наличие водяных знаков: Нет
• Год издания релиза: 2020
• Лейбл: GBMUSIC
• Продолжительность: 00:38:11
• Источник: internet
• WEB релиз: ссылка
• Контейнер: FLAC (*.flac)
• Тип рипа: tracks
• Разрядность: 24/44,1-48
• Формат: WAV (flac.ape.wv)
• Количество каналов: 2.0
• Наличие сканов: front

Лог проверки качества
foobar2000 1.3.9 / Замер динамического диапазона (DR) 1.1.1
Дата отчёта:  2020-01-30 08:23:43

--------------------------------------------------------------------------------
Анализ:   Giacomo Bondi / L4LOVE
--------------------------------------------------------------------------------

DR         Пики         RMS           Продолжительность трека
--------------------------------------------------------------------------------
DR8       -0.10 дБ    -9.27 дБ      4:49 01-Sometimes
DR8        0.00 дБ    -9.26 дБ      4:05 02-Every Time
DR8       -0.10 дБ    -9.32 дБ      5:12 03-L4LOVE
DR8       -0.10 дБ    -9.71 дБ      4:27 05-Necessary Love
DR8       -0.10 дБ    -9.35 дБ      4:22 06-Signs of Love
DR7        0.00 дБ    -8.93 дБ      5:33 07-All Pain Is Gone
DR8       -0.10 дБ    -9.81 дБ      4:15 08-The Shape of Your Face
--------------------------------------------------------------------------------

Количество треков: 7
Реальные значения DR: DR8

Частота:   48000 Гц
Каналов:   2
Разрядность:   24
Битрейт:   1810 кбит/с
Кодек:   FLAC
================================================================================

foobar2000 1.3.9 / Замер динамического диапазона (DR) 1.1.1
Дата отчёта:  2020-01-30 08:23:38

--------------------------------------------------------------------------------
Статистика для:  04-Run Away to Any Place
Количество сэмплов: 14455903
Продолжительность: 5:28
--------------------------------------------------------------------------------

           Левый             Правый

Пики:               -0.10 дБ     ---     -0.10 дБ
Средний RMS:             -10.72 дБ     ---    -10.51 дБ
DR канала:               8.17 дБ     ---      7.95 дБ
--------------------------------------------------------------------------------

Реальные значения DR: DR8

Частота:   44100 Гц
Каналов:   2
Разрядность:   24
Битрейт:   1662 кбит/с
Кодек:   FLAC
================================================================================
Any questions - support@pro-jazz.com. Есть вопросы - support@pro-jazz.com
15:22
317
Нет комментариев. Ваш будет первым!