Поиск

2018 André M. Santos - Sete {SevenMuses} [24-44,1]

2018 André M. Santos - Sete {SevenMuses} [24-44,1]
Номер по каталогу:
SM036
Носитель:
WEB
Формат:
PCM
Тип рипа:
tracks
Контейнер:
FLAC (*.flac)
Количество каналов:
2.0
Разрядность/ЧД:
24/44,1
Формат записи/Источник записи:
[TR24][OF]
Наличие сканов:
только обложка
Наличие водяных знаков:
нет
Страна-производитель диска (релиза):
Portugal
Релизёр (источник):
M0p94ok
Треклист:

01. Canção de Alcipe  01:57
02. Melodia Nº2  02:46
03. Balada da Oliveira  02:52
04. Ponta de S. Lourenço  03:58
05. Fantasia Op. 70  04:02
06. A Ponte Dos Lamentos  07:29
07. Valsa Sem Nome  02:44
08. La Partida  03:35
09. Vejam Bem  02:10
10. Pegadas Verdes Num Solo Antigo feat. Kabeção 06:13
11. Valsinha feat. Ricardo Ribeiro  04:32
12. Rasga o Passado feat. Teresa Salgueiro  03:54
13. Canción de las Simples Cosas feat. Carla Pires  04:46
14. Over The Rainbow feat. Nuno Guerreiro  06:16
15. Não Se Chama feat. Ana Laíns, Yami  04:31
16. No Meio da Brasa feat. Liana  03:59

Лог проверки качества
foobar2000 1.3.16 / Dynamic Range Meter 1.1.1
log date: 2018-12-16 19:31:27

--------------------------------------------------------------------------------
Analyzed: André M. Santos, Ana Laíns, Yami / Sete (1)
          André M. Santos, Carla Pires / Sete (2)
          André M. Santos, Kabeção / Sete (3)
          André M. Santos, Liana / Sete (4)
          André M. Santos, Nuno Guerreiro / Sete (5)
          André M. Santos, Ricardo Ribeiro / Sete (6)
          André M. Santos / Sete (7-15)
--------------------------------------------------------------------------------

DR         Peak         RMS     Duration Track
--------------------------------------------------------------------------------
DR8        0.00 dB   -10.39 dB      4:32 15-Não Se Chama
DR12       0.00 dB   -15.35 dB      4:47 13-Canción de las Simples Cosas
DR14       0.00 dB   -17.85 dB      6:13 10-Pegadas Verdes Num Solo Antigo
DR10       0.00 dB   -14.83 dB      3:59 16-No Meio da Brasa
DR9        0.00 dB   -11.95 dB      6:16 14-Over The Rainbow
DR14       0.00 dB   -18.15 dB      4:32 11-Valsinha
DR15       0.00 dB   -18.81 dB      1:57 01-Canção de Alcipe
DR14       0.00 dB   -18.11 dB      2:47 02-Melodia Nº2
DR14      -0.18 dB   -18.51 dB      2:52 03-Balada da Oliveira
DR13       0.00 dB   -15.81 dB      3:58 04-Ponta de S. Lourenço
DR13      -2.10 dB   -18.37 dB      4:03 05-Fantasia Op. 70
DR15       0.00 dB   -19.23 dB      7:30 06-A Ponte Dos Lamentos
DR12      -2.84 dB   -17.48 dB      2:45 07-Valsa Sem Nome
DR14       0.00 dB   -19.23 dB      3:36 08-La Partida
DR14       0.00 dB   -20.19 dB      2:10 09-Vejam Bem
--------------------------------------------------------------------------------

Number of tracks:  15
Official DR value: DR13

Samplerate:        44100 Hz
Channels:          2
Bits per sample:   24
Bitrate:           1195 kbps
Codec:             FLAC
================================================================================

--------------------------------------------------------------------------------
Statistics for: 12-Rasga o Passado
Number of samples: 22464000
Duration: 3:54 
--------------------------------------------------------------------------------

                 Left              Right

Peak Value:     -1.16 dB   ---     -2.19 dB   
Avg RMS:       -16.61 dB   ---    -16.18 dB   
DR channel:     11.45 dB   ---     11.03 dB   
--------------------------------------------------------------------------------

Official DR Value: DR11

Samplerate:        96000 Hz
Channels:          2
Bits per sample:   24
Bitrate:           2718 kbps
Codec:             FLAC
================================================================================
Приватный:
Нет (DHT включён)
Размер:
648.02 Мб (679,494,534 байт) » файлов: 18
Участники:
5 раздают, 1 качают (6 участников всего)
Внешние участники:
--- [ Обновить ]
Скорость:
110.99 Кб/c 0/c
Есть вопросы - пишите личное сообщение пользователю M0p94ok.
23:33
20
Нет комментариев. Ваш будет первым!