Поиск

2013 Paolo Fresu Devil Quartet - Desertico (2017) {Tuk Music} [24-88,2]

2013 Paolo Fresu Devil Quartet - Desertico (2017) {Tuk Music} [24-88,2]
Стили:
Треклист:

01. (I Cant' Get No) Satisfaction (6:16)
02. La follia italiana (7:52)
03. Ambre (5:23)
04. All Items (6:38)
05. Blame It On My Youth (3:48)
06. Desertico (5:43)
07. Suite For The Devil (4:15)
08. Poetto's Sky (6:16)
09. Voci oltre (4:51)
10. Young Forever (2:51)
11. Medley A: Ninna Nanna Per Andrea (4:10)
12. Medley B: Inno Alla Vita (3:54)

Доп. инфо:

Формат записи/Источник записи: [TR24][OF]
Наличие водяных знаков: Нет
Год издания/переиздания диска: 2013/2017
Издатель (лейбл): Tŭk Music
Продолжительность: 01:01:57
Наличие сканов в содержимом раздачи: Только обложка альбома

Контейнер: FLAC (*.flac)
Тип рипа: tracks
Разрядность: 24/88,2
Формат: PCM
Количество каналов: 2.0

Источник: qobuz.com

Лог проверки качества
foobar2000 1.3.9 / Dynamic Range Meter 1.1.1
log date: 2020-01-30 12:37:23

--------------------------------------------------------------------------------
Analyzed: Paolo Fresu Devil Quartet / Desertico
--------------------------------------------------------------------------------

DR         Peak         RMS     Duration Track
--------------------------------------------------------------------------------
DR9       -0.30 dB   -11.56 dB      6:16 01-(I Cant' Get No) Satisfaction
DR9       -0.30 dB   -11.90 dB      7:52 02-La follia italiana
DR11      -0.30 dB   -13.59 dB      5:23 03-Ambre
DR10      -0.30 dB   -12.08 dB      6:38 04-All Items
DR12      -0.30 dB   -15.61 dB      3:48 05-Blame It On My Youth
DR9       -0.30 dB   -11.62 dB      5:43 06-Desertico
DR8       -0.30 dB   -10.91 dB      4:15 07-Suite For The Devil
DR12      -0.30 dB   -15.09 dB      6:16 08-Poetto's Sky
DR9       -0.30 dB   -12.14 dB      4:51 09-Voci oltre
DR13      -0.30 dB   -15.99 dB      2:51 10-Young Forever
DR11      -0.30 dB   -14.73 dB      4:10 11-Medley A: Ninna Nanna Per Andrea
DR10      -0.30 dB   -13.02 dB      3:54 12-Medley B: Inno Alla Vita
--------------------------------------------------------------------------------

Number of tracks:  12
Official DR value: DR10

Samplerate:        88200 Hz
Channels:          2
Bits per sample:   24
Bitrate:           2572 kbps
Codec:             FLAC
================================================================================
Приватный:
Нет (DHT включён)
Размер:
1.16 Гб (1,247,994,958 байт) » файлов: 16
Участники:
0 раздают, 0 качают (0 участников всего)
Внешние участники:
5 раздают, 1 качают (6 участников всего) [ Обновить ]
Есть вопросы - пишите личное сообщение пользователю M0p94ok.
11:37
18
Нет комментариев. Ваш будет первым!