Поиск

2016 Eivind Austad Trio - Moving {Ozella OZ 1061} [24-96]

2016 Eivind Austad Trio - Moving {Ozella OZ 1061} [24-96]
Стили:
Дата записи диска:
9-10 декабря 2013
Место записи:
Rainbow Studios, Oslo, Norway
Издатель (лейбл):
Номер по каталогу:
OZ061
Носитель:
WEB
Формат:
PCM
Тип рипа:
tracks
Контейнер:
FLAC (*.flac)
Количество каналов:
2.0
Разрядность/ЧД:
24/96
Формат записи/Источник записи:
[TR24][OF]
Время звучания:
00:49:26
Наличие сканов:
только обложка
Наличие водяных знаков:
нет
Релизёр (источник):
M0p94ok
Треклист:

1. Two of Mine  06:29
2. Median  05:35
3. Homeland  04:58
4. In the End  07:09
5. Moving  05:56
6. The Moment of Truth  08:38
7. All of You  05:17
8. Life on Mars  05:24

Лог проверки качества
foobar2000 1.4.3 / Dynamic Range Meter 1.1.1
log date: 2020-03-16 13:59:26

--------------------------------------------------------------------------------
Analyzed: Eivind Austad Trio / Moving
--------------------------------------------------------------------------------

DR         Peak         RMS     Duration Track
--------------------------------------------------------------------------------
DR14      -0.10 dB   -17.56 dB      6:29 01-Two of Mine
DR15      -0.10 dB   -18.18 dB      5:36 02-Median
DR15      -0.10 dB   -20.00 dB      4:59 03-Homeland
DR13      -0.10 dB   -15.73 dB      7:10 04-In the End
DR14      -0.10 dB   -17.03 dB      5:56 05-Moving
DR14      -0.10 dB   -16.29 dB      8:39 06-The Moment of Truth
DR12      -0.10 dB   -14.94 dB      5:17 07-All of You
DR14      -2.05 dB   -20.46 dB      5:24 08-Life on Mars
--------------------------------------------------------------------------------

Number of tracks:  8
Official DR value: DR14

Samplerate:        96000 Hz
Channels:          2
Bits per sample:   24
Bitrate:           2723 kbps
Codec:             FLAC
================================================================================
Приватный:
Нет (DHT включён)
Размер:
1000.41 Мб (1,049,009,008 байт) » файлов: 10
Участники:
4 раздают, 0 качают (4 участников всего)
Внешние участники:
--- [ Обновить ]
Есть вопросы - пишите личное сообщение пользователю M0p94ok.
14:08
16
Нет комментариев. Ваш будет первым!