Поиск

2020 Will Vinson - 441 {Whirlwind} [24-44,1]

2020 Will Vinson - 441 {Whirlwind} [24-44,1]
Место записи:
Oktaven Audio, Mt Vernon, NY; Avatar, New York, NY
Дата издания диска:
31 января 2020
Треклист:

01. Boogaloo 04:02    
02. Love Letters 07:53    
03. Banal Street 05:29    
04. Oasis 08:53    
05. I am James Bond 08:30    
06. Cherry Time 07:26    
07. Work 05:33    
08. KW 07:05    
09. The Way to You 04:43    
10. That Happened 10:17    
11. Milestones 04:50

Доп. инфо:

• Формат записи | Источник записи: [TR24][OF]
• Наличие водяных знаков: Нет
• Год издания релиза: 2020
• Жанр: Contemporary Jazz
• Продолжительность: 01:14:48
• WEB релиз: https://www.qobuz.com/gb-en/album/441-will-vinson/f8b78q6f26e7b
• Контейнер: FLAC (*.flac)
• Тип рипа: tracks
• Разрядность: 24/44,1
• Формат: WAV (flac.ape.wv)
• Количество каналов: 2.0
• Наличие сканов: booklet

Лог проверки качества
foobar2000 1.4.2 / Dynamic Range Meter 1.1.1
log date: 2020-01-29 21:04:33

--------------------------------------------------------------------------------
Analyzed: Will Vinson / 441
--------------------------------------------------------------------------------

DR         Peak         RMS     Duration Track
--------------------------------------------------------------------------------
DR11      -0.49 dB   -13.80 dB      4:03 01-Boogaloo
DR10      -0.43 dB   -12.90 dB      7:53 02-Love Letters
DR13      -0.49 dB   -15.54 dB      5:30 03-Banal Street
DR10      -0.28 dB   -14.30 dB      8:54 04-Oasis
DR12      -0.45 dB   -15.56 dB      8:31 05-I Am James Bond
DR10      -0.46 dB   -14.36 dB      7:27 06-Cherry Time
DR11      -0.46 dB   -14.27 dB      5:34 07-Work
DR10      -0.49 dB   -13.18 dB      7:05 08-KW
DR13      -0.49 dB   -18.64 dB      4:44 09-The Way to You
DR10      -0.44 dB   -12.51 dB     10:18 10-That Happened
DR14      -0.49 dB   -16.47 dB      4:51 11-Milestones
--------------------------------------------------------------------------------

Number of tracks:  11
Official DR value: DR11

Samplerate:        44100 Hz
Channels:          2
Bits per sample:   24
Bitrate:           1275 kbps
Codec:             FLAC
================================================================================
Приватный:
Нет (DHT включён)
Размер:
737.91 Мб (773,756,101 байт) » файлов: 13
Участники:
2 раздают, 0 качают (2 участников всего)
Внешние участники:
--- [ Обновить ]
Есть вопросы - пишите личное сообщение пользователю M0p94ok.
12:14
19
Нет комментариев. Ваш будет первым!