Поиск

2018 Yelena Eckemoff - Desert {L&H} [24-96]

2018 Yelena Eckemoff - Desert {L&H} [24-96]
Стили:
Дата записи диска:
8-9 декабря 2015
Место записи:
Hollywood, CA
Номер по каталогу:
L & H Production
Носитель:
WEB
Формат:
PCM
Тип рипа:
tracks
Контейнер:
FLAC (*.flac)
Количество каналов:
2.0
Разрядность/ЧД:
24/96
Формат записи/Источник записи:
[TR24][OF]
Время звучания:
01:14:28
Наличие сканов:
буклет pdf
Наличие водяных знаков:
нет
Релизёр (источник):
M0p94ok

Треклист:

01    Bedouins    9:25
02    Mirages    7:39
03    Deserts Cry    5:58
04    Dance    8:26
05    Colors Of Nothingness    6:47
06    Condor    4:12
07    Oasis    4:59
08    Dust Storm    8:32
09    Desert Remained    5:29
10    Garden Of Eden    5:30
11    Sands    7:30

Лог проверки качества
foobar2000 1.3.16 / Dynamic Range Meter 1.1.1
log date: 2018-12-19 03:25:28

--------------------------------------------------------------------------------
Analyzed: Yelena Eckemoff / Desert
--------------------------------------------------------------------------------

DR         Peak         RMS     Duration Track
--------------------------------------------------------------------------------
DR8       -1.00 dB   -11.14 dB      9:24 01-Bedouins
DR7       -1.00 dB   -11.63 dB      7:40 02-Mirages
DR8       -1.00 dB   -12.31 dB      5:58 03-Desert's Cry
DR8       -1.00 dB   -10.82 dB      8:27 04-Dance
DR10      -1.00 dB   -14.32 dB      6:47 05-Colors of Nothingness
DR8       -1.00 dB   -13.56 dB      4:12 06-Condor
DR10      -1.00 dB   -12.60 dB      5:00 07-Oasis
DR8       -1.00 dB   -10.77 dB      8:33 08-Dust Storm
DR8       -1.00 dB   -11.93 dB      5:29 09-Desert Remained
DR9       -1.00 dB   -12.79 dB      5:30 10-Garden of Eden
DR8       -1.00 dB   -11.46 dB      7:30 11-Sands
--------------------------------------------------------------------------------

Number of tracks:  11
Official DR value: DR8

Samplerate:        96000 Hz
Channels:          2
Bits per sample:   24
Bitrate:           3118 kbps
Codec:             FLAC
================================================================================
Приватный:
Нет (DHT включён)
Размер:
1.61 Гб (1,727,875,284 байт) » файлов: 14
Участники:
7 раздают, 0 качают (7 участников всего)
Внешние участники:
--- [ Обновить ]
No seeders - write a personal message to user M0p94ok. Нет сидеров - пишите личное сообщение пользователю M0p94ok.
13:37
38
Нет комментариев. Ваш будет первым!