Поиск

2018 Acker Bilk - All That Jazz, Vol. 110 Stompin' at Storyville {Jube Legends} [24-48]

2018 Acker Bilk - All That Jazz, Vol. 110 Stompin' at Storyville {Jube Legends} [24-48]
Стили:
Номер по каталогу:
Jube Legends
Носитель:
WEB
Формат:
PCM
Тип рипа:
tracks
Контейнер:
FLAC (*.flac)
Количество каналов:
2.0
Разрядность/ЧД:
24/48
Формат записи/Источник записи:
[TR24][OF]
Время звучания:
01:06:19
Наличие сканов:
только обложка
Наличие водяных знаков:
нет
Релизёр (источник):
M0p94ok
Треклист:

01. Sing On! - Acker Bilk; Bob Wallis & His Storyville Jazzmen  2:16
02. Dippermouth Blues - Acker Bilk; Johnny Bastable's Chosen Seven  2:50
03. Blues "Ad Libitum" - Acker Bilk & His Paramount Jazz Band  4:55
04. Delia - Acker Bilk & His Paramount Jazz Band  3:27
05. Franklin Street Blues - Acker Bilk & His Paramount Jazz Band  3:03
06. Easter Parade - Acker Bilk & His Paramount Jazz Band  2:45
07. Loue-si-anna - Acker Bilk; Bob Wallis & His Storyville Jazzmen  3:08
08. Storyville Blues - Acker Bilk; Johnny Bastable's Chosen Seven  4:14
09. Marching Through Georgia - Acker Bilk & His Paramount Jazz Band  3:23
10. Jump in the Line - Acker Bilk & His Paramount Jazz Band  2:57
11. Red Wing - Acker Bilk; Bob Wallis & His Storyville Jazzmen  2:27
12. Travelling Blues - Acker Bilk; Johnny Bastable's Chosen Seven  3:08
13. Willie the Weeper - Acker Bilk & His Paramount Jazz Band  3:09
14. Tartan Socks - Acker Bilk; Bob Wallis & His Storyville Jazzmen  3:08
15. Under the Double Eagle - Acker Bilk & His Paramount Jazz Band  2:53
16. Carry Me Back to Old Virginny - Acker Bilk & His Paramount Jazz Band  3:10
17. Snag It - Acker Bilk; Bob Wallis & His Storyville Jazzmen  4:20
18. High Society Stomp - Acker Bilk; Bob Wallis & His Storyville Jazzmen  3:46
19. Don't Go Way Nobody - Acker Bilk; Johnny Bastable's Chosen Seven  3:10
20. Stomp! Stomp! Stomp! - Acker Bilk & His Paramount Jazz Band  4:10

Лог проверки качества
foobar2000 1.4.3 / Dynamic Range Meter 1.1.1
log date: 2020-03-15 11:07:15

--------------------------------------------------------------------------------
Analyzed: Acker Bilk / All That Jazz, Vol. 110: Stompin' at Storyville – Mr. Acker Bilk (Remastered 2018)
--------------------------------------------------------------------------------

DR         Peak         RMS     Duration Track
--------------------------------------------------------------------------------
DR11       0.00 dB   -12.74 dB      2:14 01-Sing On!
DR12       0.00 dB   -13.48 dB      2:48 02-Dipper Mouth Blues: Dippermouth Blues
DR11       0.00 dB   -13.70 dB      4:54 03-Ad lib Blues: Blues "Ad Libitum"
DR11       0.00 dB   -12.88 dB      3:26 04-Delia Gone: Delia
DR12       0.00 dB   -13.67 dB      3:01 05-Franklin Street Blues
DR14       0.00 dB   -16.62 dB      2:43 06-Easter Parade
DR11       0.00 dB   -12.66 dB      3:06 07-Lou-easy-an-i-a: Loue-si-anna
DR12       0.00 dB   -14.45 dB      4:13 08-Storyville Blues
DR13       0.00 dB   -14.82 dB      3:21 09-Marching Through Georgia
DR13       0.00 dB   -13.83 dB      2:55 10-Jump in the Line
DR11       0.00 dB   -13.00 dB      2:25 11-Red Wing
DR13       0.00 dB   -14.31 dB      3:07 12-Travelling Blues
DR11       0.00 dB   -13.69 dB      3:08 13-Willie the Weeper
DR10       0.00 dB   -11.89 dB      3:06 14-Tartan Socks
DR12       0.00 dB   -13.44 dB      2:53 15-Unter dem Doppeladler (Under the Double Eagle), Op. 159: Under the Double Eagle
DR14       0.00 dB   -15.56 dB      3:09 16-Carry Me Back to Old Virginny
DR12       0.00 dB   -14.15 dB      4:19 17-Snag It
DR11       0.00 dB   -13.08 dB      3:44 18-High Society Stomp
DR13       0.00 dB   -14.64 dB      3:09 19-Don't Go Way Nobody
DR12       0.00 dB   -13.98 dB      4:08 20-Come On and Stomp, Stomp, Stomp: Stomp! Stomp! Stomp!
--------------------------------------------------------------------------------

Number of tracks:  20
Official DR value: DR12

Samplerate:        48000 Hz
Channels:          2
Bits per sample:   24
Bitrate:           1648 kbps
Codec:             FLAC
================================================================================
Приватный:
Нет (DHT включён)
Размер:
749.53 Мб (785,942,156 байт) » файлов: 22
Участники:
4 раздают, 0 качают (4 участников всего)
Внешние участники:
--- [ Обновить ]
Есть вопросы - пишите личное сообщение пользователю M0p94ok.
11:41
17
Нет комментариев. Ваш будет первым!