Поиск

2020 Silvan Joray Trio - Cluster {Neuklang} [24-96]

2020 Silvan Joray Trio - Cluster {Neuklang} [24-96]
Стили:
Дата записи диска:
12-13 апреля 2019
Место записи:
Bauer Studios Ludwigsburg
Дата издания диска:
31 января 2020

Треклист:

01. See You in June (6:20)
02. Gyrotwister (5:01)
03. Blutmond (5:51)
04. In High Heels on a Mountain Road (5:23)
05. Cluster Song (7:56)
06. See You in Late September (5:23)
07. Something Happy (6:08)
08. Bass Space (1:21)
09. Wolfgang's Choral (3:44)
10. Space 7 (0:51)
11. Space 12 (2:31)
12. Sonnenwind (1:39)
13. Looking Up (5:12)

Доп. инфо:

Формат записи/Источник записи: [TR24][OF]
Наличие водяных знаков: Нет
Год издания: 2020
Издатель (лейбл): Neuklang
Продолжительность: 00:57:20
Наличие сканов в содержимом раздачи: Только обложка альбома
Контейнер: FLAC (*.flac)
Тип рипа: tracks
Разрядность: 24/96
Формат: PCM
Количество каналов: 2.0
Источник (релизер): highresaudio.com
Интервью: youtube.com

Лог проверки качества
foobar2000 1.4.8 / Dynamic Range Meter 1.1.1
log date: 2020-01-29 21:33:41

--------------------------------------------------------------------------------
Analyzed: Silvan Joray Trio / Cluster
--------------------------------------------------------------------------------

DR         Peak         RMS     Duration Track
--------------------------------------------------------------------------------
DR10      -1.06 dB   -13.64 dB      6:20 01-See You in June
DR9       -1.06 dB   -13.10 dB      5:01 02-Gyrotwister
DR12      -1.08 dB   -16.01 dB      5:51 03-Blutmond
DR10      -1.06 dB   -13.73 dB      5:23 04-In High Heels on a Mountain Road
DR11      -1.07 dB   -16.67 dB      7:56 05-Cluster Song
DR10      -1.06 dB   -14.49 dB      5:23 06-See You in Late September
DR10      -1.07 dB   -14.97 dB      6:08 07-Something Happy
DR13      -1.81 dB   -19.70 dB      1:21 08-Bass Space
DR13      -1.06 dB   -17.04 dB      3:44 09-Wolfgang's Choral
DR12      -1.08 dB   -15.76 dB      0:51 10-Space 7
DR13      -1.06 dB   -18.52 dB      2:31 11-Space 12
DR12      -5.02 dB   -21.65 dB      1:39 12-Sonnenwind
DR9       -1.06 dB   -13.97 dB      5:12 13-Looking Up
--------------------------------------------------------------------------------

Number of tracks:  13
Official DR value: DR11
Samplerate:        96000 Hz
Channels:          2
Bits per sample:   24
Bitrate:           2651 kbps
Codec:             FLAC
================================================================================
Приватный:
Нет (DHT включён)
Размер:
1.10 Гб (1,180,800,499 байт) » файлов: 15
Участники:
11 раздают, 0 качают (11 участников всего)
Внешние участники:
16 раздают, 5 качают (21 участников всего) [ Обновить ]
Есть вопросы - пишите личное сообщение пользователю M0p94ok.
00:29
41
Нет комментариев. Ваш будет первым!