Поиск

2020 Joachim Kühn & Mateusz Smoczyński - Speaking Sound {ACT Music} [24-48]

2020 Joachim Kühn & Mateusz Smoczyński - Speaking Sound {ACT Music} [24-48]
Издатель (лейбл):
Треклист:

01. Epilog Der Hoffnung (6:40)
02. Maria (3:46)
03. Love and Peace (4:23)
04. No. 40 (5:39)
05. Schubertauster (5:58)
06. After the Morning (6:49)
07. I'm Better off Without You (6:52)
08. Glükszahl 23 (1:22)
09. Paganini (3:09)

Доп. инфо:

Формат записи/Источник записи: [TR24][OF]
Наличие водяных знаков: Нет
Год издания: 2020
Продолжительность: 00:44:38
Наличие сканов в содержимом раздачи: Буклет PDF
Контейнер: FLAC (*.flac)
Тип рипа: tracks
Разрядность: 24/48
Формат: PCM
Количество каналов: 2.0
Источник (релизер): highresaudio.com

Лог проверки качества
foobar2000 1.4.8 / Dynamic Range Meter 1.1.1
log date: 2020-01-29 21:15:54
--------------------------------------------------------------------------------
Analyzed: Joachim Kühn & Mateusz Smoczyński  / Speaking Sound
--------------------------------------------------------------------------------
DR         Peak         RMS     Duration Track
--------------------------------------------------------------------------------
DR12      -0.85 dB   -17.19 dB      6:40 01-Epilog Der Hoffnung
DR9       -0.72 dB   -14.45 dB      3:46 02-Maria
DR11      -2.02 dB   -16.23 dB      4:23 03-Love and Peace
DR13      -1.55 dB   -19.02 dB      5:39 04-No. 40
DR13      -0.72 dB   -17.75 dB      5:58 05-Schubertauster
DR13      -1.42 dB   -18.87 dB      6:49 06-After the Morning
DR12      -2.50 dB   -18.89 dB      6:52 07-I'm Better off Without You
DR10      -0.99 dB   -16.57 dB      1:22 08-Glükszahl 23
DR11      -0.72 dB   -13.27 dB      3:09 09-Paganini
--------------------------------------------------------------------------------
Number of tracks:  9
Official DR value: DR11
Samplerate:        48000 Hz
Channels:          2
Bits per sample:   24
Bitrate:           1505 kbps
Codec:             FLAC
================================================================================
Приватный:
Нет (DHT включён)
Размер:
459.64 Мб (481,969,584 байт) » файлов: 12
Участники:
1 раздают, 0 качают (1 участников всего)
Внешние участники:
14 раздают, 4 качают (18 участников всего) [ Обновить ]
Есть вопросы - пишите личное сообщение пользователю M0p94ok.
11:31
23
Нет комментариев. Ваш будет первым!