Поиск

2015 Dieter Ilg with Rainer Böhm, Patrice Héral - Mein Beethoven {ACT Music} [24-96]

2015 Dieter Ilg with Rainer Böhm, Patrice Héral - Mein Beethoven {ACT Music} [24-96]
Стили:
Дата издания диска:
30 января 2015
Издатель (лейбл):
Номер по каталогу:
ACT 9582-2
Носитель:
WEB
Формат:
PCM
Тип рипа:
tracks
Контейнер:
FLAC (*.flac)
Количество каналов:
2.0
Разрядность/ЧД:
24/96
Формат записи/Источник записи:
[TR24][OF]
Время звучания:
01:00:57
Наличие сканов:
только обложка
Наличие водяных знаков:
да
Страна-производитель диска (релиза):
Germany
Релизёр (источник):
M0p94ok
Треклист:

01    Pastorale    4:09
02    Ode    5:20
03    Fuge    4:04
04    Return To Ulster    5:42
05    Arietta    5:34
06    Dankgesang    4:15
07    Sturm    4:46
08    Hammerlos    2:40
09    109    6:02
10    Adagio    4:52
11    Allegro    4:46
12    Soldier's Dream    3:47
13    Mond Und Schein    5:03

Лог проверки качества
foobar2000 1.4.3 / Dynamic Range Meter 1.1.1
log date: 2020-03-13 15:16:39

--------------------------------------------------------------------------------
Analyzed: Dieter Ilg with Rainer Böhm, Patrice Héral / Mein Beethoven
--------------------------------------------------------------------------------

DR         Peak         RMS     Duration Track
--------------------------------------------------------------------------------
DR11      -0.20 dB   -13.34 dB      4:07 01-Pastorale
DR13      -1.43 dB   -19.13 dB      5:20 02-Ode
DR10      -0.20 dB   -13.45 dB      4:05 03-Fuge
DR13      -0.48 dB   -17.62 dB      5:42 04-Return to Ulster
DR10      -0.20 dB   -13.43 dB      5:34 05-Arietta
DR14      -2.01 dB   -19.00 dB      4:16 06-Dankgesang
DR9       -0.20 dB   -12.15 dB      4:46 07-Sturm
DR9       -0.20 dB   -10.94 dB      2:40 08-Hammerlos
DR10      -0.20 dB   -13.97 dB      6:02 09-109
DR13      -1.58 dB   -18.43 dB      4:52 10-Adagio
DR9       -0.20 dB   -12.62 dB      4:46 11-Allegro
DR14      -0.20 dB   -16.92 dB      3:47 12-Soldier's Dream
DR14      -0.54 dB   -17.94 dB      5:03 13-Mond und Schein
--------------------------------------------------------------------------------

Number of tracks:  13
Official DR value: DR11

Samplerate:        96000 Hz
Channels:          2
Bits per sample:   24
Bitrate:           2654 kbps
Codec:             FLAC
================================================================================
Приватный:
Нет (DHT включён)
Размер:
1.18 Гб (1,263,228,465 байт) » файлов: 17
Участники:
5 раздают, 0 качают (5 участников всего)
Внешние участники:
--- [ Обновить ]
Скорость:
542.38 Кб/c 0/c
Есть вопросы - пишите личное сообщение пользователю M0p94ok.
15:30
23
Нет комментариев. Ваш будет первым!