Поиск

2020 Joshua Redman, Brad Mehldau, Christian McBride & Brian Blade - RoundAgain {Nonesuch} [24-96]

2020 Joshua Redman, Brad Mehldau, Christian McBride & Brian Blade - RoundAgain {Nonesuch} [24-96]
Стили:
Издатель (лейбл):
Битрейт аудио:
lossless
Треклист:

1. Undertow (7:23)
2. Moe Honk (7:12)
3. Silly Little Love Song (7:02)
4. Right Back Round Again (6:01)
5. Floppy Diss (5:23)
6. Father (6:37)
7. Your Part To Play (5:05)

Доп. инфо:

Формат записи/Источник записи: [TR24][OF]
Наличие водяных знаков: Нет
Год издания: 2020
Продолжительность: 00:44:37
Наличие сканов в содержимом раздачи: Буклет PDF
Контейнер: FLAC (*.flac)
Тип рипа: tracks
Разрядность: 24/96
Формат: PCM
Количество каналов: 2.0
Источник (релизер): highresaudio.com

Лог проверки качества
foobar2000 1.4.8 / Dynamic Range Meter 1.1.1
log date: 2020-07-10 17:29:08

--------------------------------------------------------------------------------
Analyzed: Joshua Redman / RoundAgain
--------------------------------------------------------------------------------

DR         Peak         RMS     Duration Track
--------------------------------------------------------------------------------
DR10      -0.08 dB   -13.09 dB      7:23 01-Undertow
DR10      -0.08 dB   -11.44 dB      7:12 02-Moe Honk
DR9       -0.08 dB   -11.26 dB      7:02 03-Silly Little Love Song
DR9       -0.08 dB   -10.85 dB      6:01 04-Right Back Round Again
DR10      -0.08 dB   -12.35 dB      5:23 05-Floppy Diss
DR9       -0.08 dB   -11.84 dB      6:37 06-Father
DR10      -0.08 dB   -15.17 dB      5:05 07-Your Part To Play
--------------------------------------------------------------------------------

Number of tracks:  7
Official DR value: DR9
Samplerate:        96000 Hz
Channels:          2
Bits per sample:   24
Bitrate:           2705 kbps
Codec:             FLAC
================================================================================
Приватный:
Нет (DHT включён)
Размер:
932.14 Мб (977,417,759 байт) » файлов: 10
Участники:
0 раздают, 0 качают (0 участников всего)
Внешние участники:
34 раздают, 11 качают (45 участников всего) [ Обновить ]
No seeders - write a personal message to user M0p94ok. Нет сидеров - пишите личное сообщение пользователю M0p94ok.
18:36
18
Нет комментариев. Ваш будет первым!