Вы используете незарегистрированную версию компонента "Вкладки"!

Поиск

2016 Leon “Foster” Thomas - Metamorphosis {Ropeadope} [24-44,1]

2016 Leon “Foster” Thomas - Metamorphosis {Ropeadope} [24-44,1]
Издатель (лейбл):
Битрейт аудио:
lossless
Доп. инфо:

Формат записи/Источник записи: [TR24][OF]
Наличие водяных знаков: Нет
Год издания/переиздания диска: 2016/2019
Продолжительность: 01:09:55
Наличие сканов в содержимом раздачи: Только обложка альбома

Контейнер: FLAC (*.flac)
Тип рипа: tracks
Разрядность: 24/44,1
Формат: PCM
Количество каналов: 2.0

Источник (релизер): https://leonfosterthomas.bandcamp.com/album/metamorphosis

Лог проверки качества
foobar2000 1.3.7 / Dynamic Range Meter 1.1.1
log date: 2020-01-28 23:55:04

--------------------------------------------------------------------------------
Analyzed: Leon "Foster" Thomas / Metamorphosis
--------------------------------------------------------------------------------

DR         Peak         RMS     Duration Track
--------------------------------------------------------------------------------
DR8       -0.10 dB    -9.38 dB      7:30 01-Kai-Fusion
DR9       -0.10 dB   -10.13 dB      7:27 02-Midnight Refrain
DR8       -0.10 dB   -12.25 dB      6:25 03-Gulf Of Paria
DR11      -0.10 dB   -15.23 dB      6:07 04-In The Corner
DR10      -0.10 dB   -13.20 dB      7:09 05-Delusion Of A Dream
DR9       -0.10 dB   -11.90 dB      6:49 06-Unknown Memory
DR9       -0.10 dB   -11.54 dB      4:06 07-Dubplate Swing
DR9       -0.10 dB   -11.95 dB      8:22 08-Take A Bow | Tribute to Nelson Mandela
DR14      -0.12 dB   -19.03 dB      6:04 09-A Whiter Shade Of Pale
DR8       -0.10 dB    -9.09 dB     10:01 10-Cry Of Hope
--------------------------------------------------------------------------------

Number of tracks:  10
Official DR value: DR9

Samplerate:        44100 Hz
Channels:          2
Bits per sample:   24
Bitrate:           1758 kbps
Codec:             FLAC
================================================================================
Any questions - support@pro-jazz.com. Есть вопросы - support@pro-jazz.com
07:34
255
Нет комментариев. Ваш будет первым!