Вы используете незарегистрированную версию компонента "Вкладки"!

Поиск

1982 The New Woody Shaw Quintet - At Onkel Pö´s Carnegie Hall, Hamburg (2017) {Delta} [24-44,1]

1982 The New Woody Shaw Quintet - At Onkel Pö´s Carnegie Hall, Hamburg (2017) {Delta} [24-44,1]
Стили:
Битрейт аудио:
lossless
Доп. инфо:

Формат записи/Источник записи: [TR24][OF]
Издание: Remastered
Год издания/переиздания диска: 2017
Издатель (лейбл): Delta Music
Продолжительность: 01:11:03
Наличие сканов в содержимом раздачи: Нет

Контейнер: FLAC (*.flac)
Тип рипа: tracks
Разрядность: 24/44,1
Количество каналов: 2.0

Источник (релизер): HIGHRESAUDIO

Лог проверки качества
foobar2000 1.4.3 / Dynamic Range Meter 1.1.1
log date: 2020-06-15 23:03:31

--------------------------------------------------------------------------------
Analyzed: Woody Shaw / At Onkel Pö´s Carnegie Hall, Hamburg 1982
--------------------------------------------------------------------------------

DR         Peak         RMS     Duration Track
--------------------------------------------------------------------------------
DR9       -0.28 dB   -10.99 dB     19:29 01-Katrina Ballerina
DR18      -0.37 dB   -21.93 dB      1:43 02-Announcement I
DR10      -0.21 dB   -12.27 dB     17:31 03-Joshua C
DR8       -0.25 dB    -9.83 dB     19:02 04-Sunbath
DR12     -10.59 dB   -28.41 dB      0:09 05-Announcement II
DR9       -0.27 dB   -11.01 dB     13:11 06-To Killa Brick
--------------------------------------------------------------------------------

Number of tracks:  6
Official DR value: DR11

Samplerate:        44100 Hz
Channels:          2
Bits per sample:   24
Bitrate:           1719 kbps
Codec:             FLAC
================================================================================
Any questions - support@pro-jazz.com. Есть вопросы - support@pro-jazz.com
06:43
230
Нет комментариев. Ваш будет первым!