Вы используете незарегистрированную версию компонента "Вкладки"!

Поиск

2015 Ahmad Jamal - Live In Marciac, August 5th 2014 {Jazz Village} [24-44,1]

2015 Ahmad Jamal - Live In Marciac, August 5th 2014 {Jazz Village} [24-44,1]
Стили:
Номер по каталогу:
JV 570078.79
Битрейт аудио:
lossless
Доп. инфо:

Формат записи/Источник записи: [TR24][OF]
Год издания/переиздания диска: 2015
Издатель (лейбл): Jazz Village
Продолжительность: 01:22:16
Наличие сканов в содержимом раздачи: Буклет PDF

Контейнер: FLAC (*.flac)
Тип рипа: tracks
Разрядность: 24/44,1
Количество каналов: 2.0

Источник (релизер): Qobuz

Лог проверки качества
foobar2000 1.3.7 / Dynamic Range Meter 1.1.1
log date: 2019-07-02 06:05:38

--------------------------------------------------------------------------------
Analyzed: Ahmad Jamal / Live In Marciac, August 5th 2014
--------------------------------------------------------------------------------

DR         Peak         RMS     Duration Track
--------------------------------------------------------------------------------
DR14      -0.50 dB   -18.09 dB     12:00 01-Sunday Afternoon
DR14      -0.50 dB   -19.91 dB      5:04 02-The Shout
DR15      -0.50 dB   -17.89 dB      8:11 03-Dynamo
DR16      -0.85 dB   -21.64 dB      5:38 04-The Gypsy
DR17      -0.87 dB   -22.66 dB      6:26 05-Strollin'
DR14      -0.50 dB   -18.13 dB      8:08 06-Silver
DR15      -0.75 dB   -19.95 dB      5:26 07-All Of You
DR14      -0.70 dB   -19.73 dB      9:19 08-Morning Mist
DR14      -0.51 dB   -17.23 dB      9:36 09-Blue Moon
DR13      -0.50 dB   -17.07 dB     12:36 10-Autumn Rain
--------------------------------------------------------------------------------

Number of tracks:  10
Official DR value: DR15

Samplerate:        44100 Hz
Channels:          2
Bits per sample:   24
Bitrate:           1519 kbps
Codec:             FLAC
================================================================================
Any questions - support@pro-jazz.com. Есть вопросы - support@pro-jazz.com
21:31
258
Нет комментариев. Ваш будет первым!