Поиск

1980 Pat Metheny - 80-81 (2020) {ECM} [24-96]

1980 Pat Metheny - 80-81 (2020) {ECM} [24-96]
Дата записи диска:
26-29 мая 1980
Место записи:
Talent Studio, Oslo, Norway
Издатель (лейбл):
Битрейт аудио:
lossless
Треклист:

01 - Two Folk Songs 20:55
02 - 80/81 07:34
03 - The Bat 06:05
04 - Turnaround 07:08
05 - Open 14:33
06 - Pretty Scattered 07:00
07 - Every Day (I Thank You) 13:20
08 - Goin' Ahead 03:52

Состав:
Доп. инфо:

Формат записи/Источник записи: [TR24][OF]
Издание: Remastered
Год издания/переиздания диска: 1980/2020
Продолжительность: 01:20:27
Наличие сканов в содержимом раздачи: Буклет PDF

Контейнер: FLAC (*.flac)
Тип рипа: tracks
Разрядность: 24/96
Количество каналов: 2.0

Источник (релизер): Qobuz

Лог проверки качества
foobar2000 1.3.16 / Dynamic Range Meter 1.1.1
log date: 2020-05-26 22:59:35

--------------------------------------------------------------------------------
Analyzed: Pat Metheny / 80/81 (Remastered)
--------------------------------------------------------------------------------

DR         Peak         RMS     Duration Track
--------------------------------------------------------------------------------
DR16      -0.36 dB   -19.73 dB     20:56 01-Two Folk Songs
DR14      -2.80 dB   -20.18 dB      7:35 02-80/81
DR13      -4.04 dB   -21.80 dB      6:05 03-The Bat
DR16      -1.48 dB   -21.44 dB      7:08 04-Turnaround
DR14      -2.17 dB   -21.42 dB     14:33 05-Open
DR15      -2.84 dB   -20.72 dB      7:00 06-Pretty Scattered
DR15      -2.09 dB   -21.09 dB     13:20 07-Every Day (I Thank You)
DR13      -5.74 dB   -24.00 dB      3:52 08-Goin' Ahead
--------------------------------------------------------------------------------

Number of tracks:  8
Official DR value: DR14

Samplerate:        96000 Hz
Channels:          2
Bits per sample:   24
Bitrate:           2650 kbps
Codec:             FLAC
================================================================================
По всем вопросам пишите личное сообщение пользователю M0p94ok.
16:36
492
Нет комментариев. Ваш будет первым!