Вы используете незарегистрированную версию компонента "Вкладки"!

Поиск

1968 Teddy Wilson - The Noble Art of Teddy Wilson (2018) {2xHD} [24-192]

1968 Teddy Wilson - The Noble Art of Teddy Wilson (2018) {2xHD} [24-192]
Стили:
Дата записи диска:
6-14 декабря 1968
Издатель (лейбл):
Битрейт аудио:
lossless
Доп. инфо:

Формат записи/Источник записи: [TR24][OF]
Издание: Remastered
Год издания/переиздания диска: 1968/2018
Продолжительность: 00:39:28
Наличие сканов в содержимом раздачи: Буклет PDF

Контейнер: FLAC (*.flac)
Тип рипа: tracks
Разрядность: 24/192
Количество каналов: 2.0

Источник (релизер): PRESTO JAZZ

Лог проверки качества
foobar2000 1.4.3 / Dynamic Range Meter 1.1.1
log date: 2020-06-23 00:15:46

--------------------------------------------------------------------------------
Analyzed: Teddy Wilson / The Noble Art of Teddy Wilson (Remastered)
--------------------------------------------------------------------------------

DR         Peak         RMS     Duration Track
--------------------------------------------------------------------------------
DR11      -4.07 dB   -17.61 dB      2:26 01-My Silent Love
DR10      -4.30 dB   -17.00 dB      3:11 02-You Brought a New Kind of Love to Me
DR10      -4.00 dB   -17.75 dB      2:21 03-Paradise
DR9       -3.61 dB   -15.66 dB      3:07 04-A Connecticut Yankee: My Heart Stood Still
DR10      -4.61 dB   -17.94 dB      2:24 05-Serenata
DR10      -3.55 dB   -15.59 dB      5:13 06-(Back Home Again In) Indiana
DR11      -3.28 dB   -17.37 dB      2:30 07-Walk a Little Faster: April in Paris
DR10      -3.53 dB   -16.51 dB      4:12 08-'Deed I Do
DR11      -4.98 dB   -18.26 dB      2:30 09-Autumn in New York
DR11      -2.47 dB   -17.45 dB      2:53 10-Ain't Misbehavin'
DR11      -4.53 dB   -18.34 dB      2:56 11-Serenade in Blue
DR11      -1.60 dB   -15.11 dB      5:53 12-Can-Can: It's All Right with Me
--------------------------------------------------------------------------------

Number of tracks:  12
Official DR value: DR10

Samplerate:        192000 Hz
Channels:          2
Bits per sample:   24
Bitrate:           4830 kbps
Codec:             FLAC
================================================================================
Any questions - support@pro-jazz.com. Есть вопросы - support@pro-jazz.com
15:09
279
Нет комментариев. Ваш будет первым!