Поиск

2020 Gerald Clayton - Happening: Live At The Village Vanguard {Blue Note} [24-96]

2020 Gerald Clayton - Happening: Live At The Village Vanguard {Blue Note} [24-96]
Стили:
Издатель (лейбл):
Битрейт аудио:
lossless
Треклист:

1. Patience Patients (10:59)
2. A Light (9:22)
3. Celia (10:34)
4. Rejuvenation Agenda (7:21)
5. Envisionings (11:03)
6. Body and Soul (11:47)
7. Take the Coltrane (14:01)

Доп. инфо:

Формат записи/Источник записи: [TR24][OF]
Наличие водяных знаков: Нет
Год издания: 2020
Продолжительность: 01:15:06
Наличие сканов в содержимом раздачи: Только обложка альбома
Контейнер: FLAC (*.flac)
Тип рипа: tracks
Разрядность: 24/96
Формат: PCM
Количество каналов: 2.0
Источник (релизер): highresaudio.com

Лог проверки качества
foobar2000 1.4.8 / Dynamic Range Meter 1.1.1
log date: 2020-07-11 07:13:10

--------------------------------------------------------------------------------
Analyzed: Gerald Clayton / Happening: Live At The Village Vanguard
--------------------------------------------------------------------------------

DR         Peak         RMS     Duration Track
--------------------------------------------------------------------------------
DR13      -0.42 dB   -15.98 dB     11:00 01-Patience Patients
DR10      -0.42 dB   -13.65 dB      9:22 02-A Light
DR11      -0.42 dB   -14.18 dB     10:34 03-Celia
DR11      -0.20 dB   -13.05 dB      7:21 04-Rejuvenation Agenda
DR12      -0.42 dB   -15.68 dB     11:03 05-Envisionings
DR14      -0.42 dB   -17.80 dB     11:47 06-Body and Soul
DR13      -0.42 dB   -15.65 dB     14:01 07-Take the Coltrane
--------------------------------------------------------------------------------

Number of tracks:  7
Official DR value: DR12
Samplerate:        96000 Hz
Channels:          2
Bits per sample:   24
Bitrate:           2737 kbps
Codec:             FLAC
================================================================================
Приватный:
Нет (DHT включён)
Размер:
1.40 Гб (1,507,242,952 байт) » файлов: 9
Участники:
0 раздают, 0 качают (0 участников всего)
Внешние участники:
26 раздают, 8 качают (34 участников всего) [ Обновить ]
No seeders - write a personal message to user M0p94ok. Нет сидеров - пишите личное сообщение пользователю M0p94ok.
21:57
22
Нет комментариев. Ваш будет первым!