Поиск

2020 Ricardo Grilli - 1962 {Deko Music} [24-96]

2020 Ricardo Grilli - 1962 {Deko Music} [24-96]
Стили:
Битрейт аудио:
lossless
Треклист:

01. 1954-1962 (1:59)
02. Mars (7:57)
03. Signs (8:16)
04. Coyote (6:23)
05. E.R.P. (5:51)
06. The Sea And The Night (9:24)
07. Lunàtico (6:00)
08. 183 W 10th St. (7:46)
09. Virgo (Oliver's Song) (6:31)
10. Voyager (8:54)

Доп. инфо:

Формат записи/Источник записи: [TR24][OF]
Наличие водяных знаков: Нет
Год издания: 2020
Издатель (лейбл): Deko Music
Продолжительность: 01:08:56
Наличие сканов в содержимом раздачи: Только обложка альбома
Контейнер: FLAC (*.flac)
Тип рипа: tracks
Разрядность: 24/96
Формат: PCM
Количество каналов: 2.0
Источник (релизер): highresaudio.com

Лог проверки качества
foobar2000 1.4.8 / Dynamic Range Meter 1.1.1
log date: 2020-07-11 15:51:22

--------------------------------------------------------------------------------
Analyzed: Ricardo Grilli / 1962
--------------------------------------------------------------------------------

DR         Peak         RMS     Duration Track
--------------------------------------------------------------------------------
DR11      -1.88 dB   -17.09 dB      1:59 01-1954-1962
DR9       -1.26 dB   -11.96 dB      7:57 02-Mars
DR9       -1.26 dB   -13.14 dB      8:16 03-Signs
DR9       -1.26 dB   -12.20 dB      6:23 04-Coyote
DR9       -1.26 dB   -12.55 dB      5:51 05-E.R.P.
DR9       -1.26 dB   -12.78 dB      9:24 06-The Sea And The Night
DR9       -1.26 dB   -13.58 dB      6:00 07-Lunàtico
DR9       -1.26 dB   -12.82 dB      7:46 08-183 W 10th St.
DR10      -1.26 dB   -13.54 dB      6:31 09-Virgo (Oliver's Song)
DR9       -1.26 dB   -12.19 dB      8:54 10-Voyager
--------------------------------------------------------------------------------

Number of tracks:  10
Official DR value: DR9
Samplerate:        96000 Hz
Channels:          2
Bits per sample:   24
Bitrate:           2787 kbps
Codec:             FLAC
================================================================================
Приватный:
Нет (DHT включён)
Размер:
1.30 Гб (1,394,827,434 байт) » файлов: 12
Участники:
0 раздают, 0 качают (0 участников всего)
Внешние участники:
8 раздают, 2 качают (10 участников всего) [ Обновить ]
No seeders - write a personal message to user M0p94ok. Нет сидеров - пишите личное сообщение пользователю M0p94ok.
16:01
19
Нет комментариев. Ваш будет первым!