Поиск

2020 Ratko Zjaca & Nocturnal Four - Light in the World {IN+OUT} [24-48]

2020 Ratko Zjaca & Nocturnal Four - Light in the World {IN+OUT} [24-48]
Стили:
Битрейт аудио:
lossless
Треклист:

01 - Light in the World 04:55
02 - Storyteller 03:56
03 - Across the Gateway 05:34
04 - River Spirit 08:25
05 - Where to Stay 04:52
06 - Many Miles Away 05:46
07 - Heart of Season 05:04
08 - Trilogy Evolution 07:54
09 - Just Like It Is 05:59

Доп. инфо:

Формат записи/Источник записи: [TR24][OF]
Год издания/переиздания диска: 2020
Издатель (лейбл): IN+OUT Records
Продолжительность: 00:52:25
Наличие сканов в содержимом раздачи: Нет

Контейнер: FLAC (*.flac)
Тип рипа: tracks
Разрядность: 24/48
Количество каналов: 2.0

Лог проверки качества
foobar2000 1.3.16 / Dynamic Range Meter 1.1.1
log date: 2020-05-15 11:42:37

--------------------------------------------------------------------------------
Analyzed: Ratko Zjaca & Nocturnal Four / Light in the World
--------------------------------------------------------------------------------

DR         Peak         RMS     Duration Track
--------------------------------------------------------------------------------
DR9       -1.04 dB   -11.94 dB      4:55 01-Light in the World
DR8       -1.01 dB   -11.26 dB      3:57 02-Storyteller
DR10      -1.01 dB   -12.81 dB      5:34 03-Across the Gateway
DR9       -1.03 dB   -12.30 dB      8:25 04-River Spirit
DR9       -1.05 dB   -12.37 dB      4:52 05-Where to Stay
DR9       -1.01 dB   -11.54 dB      5:46 06-Many Miles Away
DR9       -1.05 dB   -12.26 dB      5:04 07-Heart of Season
DR10      -1.04 dB   -14.05 dB      7:55 08-Trilogy Evolution
DR8       -1.01 dB   -12.24 dB      6:00 09-Just Like It Is
--------------------------------------------------------------------------------

Number of tracks:  9
Official DR value: DR9

Samplerate:        48000 Hz
Channels:          2
Bits per sample:   24
Bitrate:           1728 kbps
Codec:             FLAC
================================================================================
Приватный:
Нет (DHT включён)
Размер:
631.01 Мб (661,663,274 байт) » файлов: 14
Участники:
0 раздают, 0 качают (0 участников всего)
Внешние участники:
9 раздают, 3 качают (12 участников всего) [ Обновить ]
No seeders - write a personal message to user M0p94ok. Нет сидеров - пишите личное сообщение пользователю M0p94ok.
12:19
18
Нет комментариев. Ваш будет первым!