Вы используете незарегистрированную версию компонента "Вкладки"!

Поиск

2020 Joe Gordon - Social Call {Nagel Heyer} [24-44,1]

2020 Joe Gordon - Social Call {Nagel Heyer} [24-44,1]
Стили:
Дата издания диска:
14 августа 2020
Издатель (лейбл):
Битрейт аудио:
lossless
Доп. инфо:

Формат записи/Источник записи: [TR24][OF]
Издание: Remastered
Год издания/переиздания диска: 2020
Продолжительность: 01:29:09
Наличие сканов в содержимом раздачи: Нет

Контейнер: FLAC (*.flac)
Тип рипа: tracks
Разрядность: 24/44,1
Количество каналов: 2.0

Источник (релизер): Qobuz

Лог проверки качества
foobar2000 1.3.16 / Dynamic Range Meter 1.1.1
log date: 2020-08-17 13:10:48

--------------------------------------------------------------------------------
Analyzed: Joe Gordon / Social Call
--------------------------------------------------------------------------------

DR         Peak         RMS     Duration Track
--------------------------------------------------------------------------------
DR11      -1.00 dB   -14.44 dB      4:05 01-Heleen
DR9       -1.00 dB   -12.65 dB      5:04 02-A Song for Richard
DR9       -1.00 dB   -11.93 dB      4:14 03-Non-Viennese Waltz Blues
DR8       -1.00 dB   -11.15 dB      4:08 04-Awakening
DR10      -1.00 dB   -13.08 dB      3:29 05-Sugar Blues
DR9       -1.00 dB   -12.36 dB      4:13 06-Mariana
DR9       -1.00 dB   -11.70 dB      6:40 07-Love for Sale
DR11      -1.00 dB   -13.87 dB      3:23 08-Runnin' Wild
DR9       -1.00 dB   -11.85 dB      6:00 09-Co-Op Blues
DR10      -1.00 dB   -13.21 dB      3:41 10-I Wanna Be Loved by You
DR8       -1.00 dB   -11.64 dB      4:04 11-You're the Only Girl in the Next World for Me
DR8       -1.00 dB   -11.36 dB      5:08 12-Diminishing
DR8       -1.00 dB   -11.18 dB      4:04 13-Anticipation
DR10      -1.00 dB   -13.48 dB      3:43 14-Sweet Georgia Brown
DR11      -1.00 dB   -15.43 dB      4:04 15-Down Among the Sheltering Palms
DR9       -1.00 dB   -11.53 dB      7:46 16-Terra Firma Irma
DR9       -1.00 dB   -11.55 dB      3:40 17-A New Twist
DR11      -1.00 dB   -14.10 dB      3:13 18-By the Beautiful Sea
DR10      -1.00 dB   -13.87 dB      4:18 19-Some Like It Hot
DR8       -1.00 dB   -10.98 dB      4:23 20-Circus
--------------------------------------------------------------------------------

Number of tracks:  20
Official DR value: DR9

Samplerate:        44100 Hz
Channels:          2
Bits per sample:   24
Bitrate:           1704 kbps
Codec:             FLAC
================================================================================
Any questions - support@pro-jazz.com. Есть вопросы - support@pro-jazz.com
15:14
220
Нет комментариев. Ваш будет первым!