Поиск

1972 George Benson - White Rabbit (40th Anniversary) (2011) {Masterworks Jazz} [24-96]

1972 George Benson - White Rabbit (40th Anniversary) (2011) {Masterworks Jazz} [24-96]
Дата записи диска:
1 ноября 1971
Место записи:
Van Gelder Recording Studio, Englewood Cliffs, New Jersey, USA
Дата переиздания диска:
21 января 2011
Издатель (лейбл):
Носитель:
WEB
Формат:
PCM
Тип рипа:
tracks+.cue
Количество каналов:
2.0
Разрядность/ЧД:
24/96
Битрейт аудио:
lossless
Время звучания:
00:36:08
Наличие сканов:
web
Страна-производитель диска (релиза):
USA
Релизёр (источник):
M0p94ok
Лог проверки качества
foobar2000 1.3.16 / Dynamic Range Meter 1.1.1
log date: 2019-03-27 22:34:13

--------------------------------------------------------------------------------
Analyzed: George Benson / White Rabbit (CTI Records 40th Anniversary Edition)
--------------------------------------------------------------------------------

DR         Peak         RMS     Duration Track
--------------------------------------------------------------------------------
DR11      -0.80 dB   -14.58 dB      7:02 01-White Rabbit
DR12      -0.29 dB   -17.36 dB      5:09 02-Theme from "Summer of '42"
DR11      -0.91 dB   -15.28 dB      5:48 03-Little Train (From Bachianas Brasileiras #2)
DR11      -0.76 dB   -15.13 dB      7:23 04-California Dreamin'
DR14       0.00 dB   -17.44 dB     10:48 05-El Mar
--------------------------------------------------------------------------------

Number of tracks:  5
Official DR value: DR12

Samplerate:        96000 Hz
Channels:          2
Bits per sample:   24
Bitrate:           2872 kbps
Codec:             FLAC
================================================================================
No seeders - write personal message to M0p94ok. Any questions - support@pro-jazz.com.
Нет сидеров - пишите в личку M0p94ok. Есть вопросы - support@pro-jazz.com
22:32
206
Нет комментариев. Ваш будет первым!