Поиск

1973 Walter Bishop, Jr. - Keeper of My Soul (2020) {Black Jazz} [24-96]

1973 Walter Bishop, Jr. - Keeper of My Soul (2020) {Black Jazz} [24-96]
Дата издания диска:
9 апреля 1973
Дата переиздания диска:
1 января 2020
Носитель:
WEB
Формат:
PCM
Тип рипа:
tracks+.cue
Количество каналов:
2.0
Разрядность/ЧД:
24/96
Битрейт аудио:
lossless
Время звучания:
00:37:30
Наличие сканов:
web
Страна-производитель диска (релиза):
USA
Релизёр (источник):
M0p94ok
Доп. инфо:

Издание: Remastered
Издатель (лейбл): Black Jazz Records

Источник (релизер): HIGHRESAUDIO

Лог проверки качества
foobar2000 1.4.3 / Dynamic Range Meter 1.1.1
log date: 2020-09-19 18:28:33

--------------------------------------------------------------------------------
Analyzed: Walter Bishop Jr. / Keeper of My Soul
--------------------------------------------------------------------------------

DR         Peak         RMS     Duration Track
--------------------------------------------------------------------------------
DR13      -1.57 dB   -16.82 dB      6:19 01-Soul Village
DR13      -1.49 dB   -17.69 dB      4:33 02-N'Dugu's Prayer
DR13      -1.22 dB   -16.70 dB      5:43 03-Summertime
DR12      -2.00 dB   -16.47 dB      7:42 04-Those Who Chant
DR13      -2.70 dB   -18.67 dB      4:44 05-Keeper Of My Soul
DR13      -1.78 dB   -17.12 dB      3:09 06-Blue Bossa
DR12      -2.99 dB   -17.69 dB      5:22 07-Sweet Rosa
--------------------------------------------------------------------------------

Number of tracks:  7
Official DR value: DR13

Samplerate:        96000 Hz
Channels:          2
Bits per sample:   24
Bitrate:           2449 kbps
Codec:             FLAC
================================================================================
No seeders - write personal message to M0p94ok. Any questions - support@pro-jazz.com.
Нет сидеров - пишите в личку M0p94ok. Есть вопросы - support@pro-jazz.com
15:48
213
Нет комментариев. Ваш будет первым!