Поиск

1963 Lennie Dale - Um Show de Bossa (2019) {RevOla} [24-44,1]

1963 Lennie Dale - Um Show de Bossa (2019) {RevOla} [24-44,1]
Место записи:
Rio Som, Rio de Janeiro, Brazil
Дата переиздания диска:
19 марта 2019
Издатель (лейбл):
Носитель:
WEB
Формат:
PCM
Тип рипа:
tracks+.cue
Количество каналов:
2.0
Разрядность/ЧД:
24/44,1
Битрейт аудио:
lossless
Время звучания:
00:36:31
Наличие сканов:
web
Страна-производитель диска (релиза):
Brazil
Релизёр (источник):
M0p94ok
Лог проверки качества
foobar2000 1.5.5 / Dynamic Range Meter 1.1.1
log date: 2020-11-12 15:48:23

--------------------------------------------------------------------------------
Analyzed: Lennie Dale / Um Show de Bossa
--------------------------------------------------------------------------------

DR         Peak         RMS     Duration Track
--------------------------------------------------------------------------------
DR13      -1.67 dB   -19.52 dB      3:42 01-So Danco Samba - Old Devil Moon - How High The Moon - O Samba da Minha Terra - Something Makes Wanna Dance With You
DR12      -1.22 dB   -19.39 dB      6:00 02-No Dollars - Samba do Aviao
DR15      -1.85 dB   -21.99 dB      9:36 03-Perdido - Day In, Day Out - Samba de Uma Nota So
DR12      -1.61 dB   -16.68 dB      2:43 04-Tamanco No Samba
DR11      -1.05 dB   -16.30 dB      3:26 05-Corcovado
DR14      -1.54 dB   -19.33 dB      8:25 06-Lover - Bim Bom - Dance Bossa Nova - O Passarinho - The Blues Walk - Nao Ponha a Mao
DR12      -1.77 dB   -16.08 dB      2:43 07-Two Ladies In The Shade Of The Banana Tree
--------------------------------------------------------------------------------

Number of tracks:  7
Official DR value: DR13

Samplerate:        44100 Hz
Channels:          2
Bits per sample:   24
Bitrate:           1561 kbps
Codec:             FLAC
================================================================================
No seeders - write personal message to M0p94ok. Any questions - support@pro-jazz.com.
Нет сидеров - пишите в личку M0p94ok. Есть вопросы - support@pro-jazz.com
01:08
201
Нет комментариев. Ваш будет первым!