Поиск

2019 Les Double Six - (Les) Double Six Of Paris Sing Ray Charles {RevOla} [24-44,1]

2019 Les Double Six - (Les) Double Six Of Paris Sing Ray Charles {RevOla} [24-44,1]
Стили:
Дата издания диска:
1 декабря 1964
Дата переиздания диска:
11 февраля 2019
Издатель (лейбл):
Номер по каталогу:
PHS 600-141
Носитель:
WEB
Формат:
PCM
Тип рипа:
tracks+.cue
Количество каналов:
2.0
Разрядность/ЧД:
24/44,1
Битрейт аудио:
lossless
Время звучания:
00:30:50
Наличие сканов:
web
Наличие водяных знаков:
нет
Релизёр (источник):
M0p94ok

Треклист:

01. One Mint Julep (Remastered)  03:00
02. Yes, Indeed (Remastered)  02:26
03. Georgia On My Mind (Remastered)  02:28
04. Lonely Avenue (Remastered)  02:58
05. Sherry (Remastered)  02:56
06. Let The Good Times Roll By (Remastered)  02:46
07. Hallelujah, I Love Her So (Remastered)  02:27
08. Hit The Road, Jack (Remastered)  02:12
09. Ruby (Remastered)  03:02
10. From The Heart (Remastered)  03:16
11. Stompin' Room Only (Remastered)  03:18

Лог проверки качества
foobar2000 1.3.16 / Dynamic Range Meter 1.1.1
log date: 2019-03-25 16:16:12

--------------------------------------------------------------------------------
Analyzed: Les Double Six / (Les) Double Six Of Paris Sing Ray Charles
--------------------------------------------------------------------------------

DR         Peak         RMS     Duration Track
--------------------------------------------------------------------------------
DR12      -4.18 dB   -19.23 dB      3:00 01-One Mint Julep
DR12      -4.26 dB   -19.50 dB      2:26 02-Yes, Indeed
DR10      -6.38 dB   -20.26 dB      2:28 03-Georgia On My Mind
DR12      -4.19 dB   -19.38 dB      2:58 04-Lonely Avenue
DR12      -3.59 dB   -19.70 dB      2:56 05-Sherry
DR12      -6.74 dB   -21.97 dB      2:46 06-Let The Good Times Roll By
DR13      -5.78 dB   -21.09 dB      2:28 07-Hallelujah, I Love Her So
DR12      -5.80 dB   -21.48 dB      2:12 08-Hit The Road, Jack
DR10      -8.06 dB   -21.32 dB      3:02 09-Ruby
DR12      -6.54 dB   -20.91 dB      3:16 10-From The Heart
DR12      -7.17 dB   -21.39 dB      3:18 11-Stompin' Room Only
--------------------------------------------------------------------------------

Number of tracks:  11
Official DR value: DR12

Samplerate:        44100 Hz
Channels:          2
Bits per sample:   24
Bitrate:           1372 kbps
Codec:             FLAC
================================================================================
Приватный:
Да (DHT отключён)
Размер:
304.81 Мб (319,617,474 байт) » файлов: 13
Участники:
2 раздают, 0 качают (2 участников всего)
Внешние участники:
--- [ Обновить ]
No seeders - write personal message to M0p94ok. Any questions - support@pro-jazz.com.
Нет сидеров - пишите в личку M0p94ok. Есть вопросы - support@pro-jazz.com
18:39
163
Нет комментариев. Ваш будет первым!