Поиск

2020 Penguin Cafe - Handfuls of Night (Explored) {Erased Tapes} [24-96]

2020 Penguin Cafe - Handfuls of Night (Explored) {Erased Tapes} [24-96]
Дата издания диска:
02 октября 2020
Носитель:
WEB
Формат:
PCM
Тип рипа:
tracks+.cue
Количество каналов:
2.0
Разрядность/ЧД:
24/96
Битрейт аудио:
lossless
Время звучания:
00:56:48
Наличие сканов:
да
Релизёр (источник):
soloneba
Лог проверки качества
foobar2000 1.3.7 / Dynamic Range Meter 1.1.1
log date: 2020-10-05 07:05:38

--------------------------------------------------------------------------------
Analyzed: Penguin Cafe / Handfuls of Night
--------------------------------------------------------------------------------

DR         Peak         RMS     Duration Track
--------------------------------------------------------------------------------
DR14      -0.10 dB   -16.41 dB      0:20 01-Winter Sun (Audio Commentary)
DR11      -0.10 dB   -14.29 dB      0:23 03-Chinstrap (Audio Commentary)
DR9       -0.10 dB   -13.14 dB      0:14 05-Chapter (Audio Commentary)
DR11      -0.10 dB   -13.52 dB      0:16 07-Adelie (Audio Commentary)
DR11      -0.10 dB   -13.81 dB      0:12 09-At the Top of the Hill, They Stood… (Audio Commentary)
DR12      -0.10 dB   -14.35 dB      0:35 11-Pythagoras on the Line Again (Audio Commentary)
DR13      -0.10 dB   -15.56 dB      0:30 13-The Life of an Emperor (Audio Commentary)
DR13      -0.10 dB   -14.47 dB      0:18 15-Gentoo Origin (Audio Commentary)
DR13      -0.10 dB   -16.39 dB      0:09 17-Midnight Sun (Audio Commentary)
DR15      -0.10 dB   -17.46 dB      2:14 19-Handfuls of Night (Audio Commentary)
DR10      -0.76 dB   -13.37 dB      4:55 20-More Milk (Bonus Track)
--------------------------------------------------------------------------------

Number of tracks:  11
Official DR value: DR12

Samplerate:        44100 Hz
Channels:          2
Bits per sample:   24
Bitrate:           1412 kbps
Codec:             FLAC
================================================================================

--------------------------------------------------------------------------------
Analyzed: Penguin Cafe / Handfuls of Night
--------------------------------------------------------------------------------

DR         Peak         RMS     Duration Track
--------------------------------------------------------------------------------
DR10      -3.76 dB   -18.04 dB      3:58 02-Winter Sun
DR11      -0.52 dB   -14.58 dB      5:49 04-Chinstrap
DR10      -0.52 dB   -13.73 dB      6:44 06-Chapter
DR12      -1.29 dB   -17.33 dB      4:08 08-Adelie
DR9       -0.52 dB   -12.66 dB      5:40 10-At the Top of the Hill, They Stood...
DR9       -0.52 dB   -12.15 dB      5:50 12-Pythagoras on the Line Again
DR9       -0.52 dB   -13.54 dB      4:56 14-The Life of an Emperor
DR10      -0.52 dB   -13.33 dB      5:32 16-Gentoo Origin
DR11      -0.53 dB   -16.70 dB      4:07 18-Midnight Sun
--------------------------------------------------------------------------------

Number of tracks:  9
Official DR value: DR10

Samplerate:        96000 Hz
Channels:          2
Bits per sample:   24
Bitrate:           2254 kbps
Codec:             FLAC
================================================================================
No seeders - write personal message to M0p94ok. Any questions - support@pro-jazz.com.
Нет сидеров - пишите в личку M0p94ok. Есть вопросы - support@pro-jazz.com
17:09
287
Нет комментариев. Ваш будет первым!