Поиск

2020 Jazz at Lincoln Center Orchestra & Wynton Marsalis - The Fifties: A Prism {Blue Engine} [24-96]

2020 Jazz at Lincoln Center Orchestra & Wynton Marsalis - The Fifties: A Prism {Blue Engine} [24-96]
Стили:
Дата издания диска:
1 мая 2020
Носитель:
WEB
Формат:
PCM
Тип рипа:
tracks
Контейнер:
FLAC (*.flac)
Количество каналов:
2.0
Разрядность/ЧД:
24/96
Битрейт аудио:
lossless
Время звучания:
00:39:33
Наличие сканов:
буклет pdf
Страна-производитель диска (релиза):
USA

Треклист:

01 - Flipped His Lid 06:56
02 - Just a-Slidin' 05:57
03 - Conglomerate 05:24
04 - Cha-Cha Toda la Noche 05:31
05 - Unorthodox Sketches 05:31
06 - Pursuit of the New Thing 10:14

Лог проверки качества
foobar2000 1.4.3 / Dynamic Range Meter 1.1.1
log date: 2021-07-03 18:02:03

--------------------------------------------------------------------------------
Analyzed: Jazz at Lincoln Center Orchestra & Wynton Marsalis / The Fifties: A Prism
--------------------------------------------------------------------------------

DR         Peak         RMS     Duration Track
--------------------------------------------------------------------------------
DR11       0.00 dB   -12.25 dB      6:57 01-Flipped His Lid
DR11       0.00 dB   -12.75 dB      5:58 02-Just a-Slidin'
DR12       0.00 dB   -14.58 dB      5:24 03-Conglomerate
DR11       0.00 dB   -12.65 dB      5:31 04-Cha-Cha Toda la Noche
DR13      -0.35 dB   -18.95 dB      5:31 05-Unorthodox Sketches
DR12       0.00 dB   -14.53 dB     10:15 06-Pursuit of the New Thing
--------------------------------------------------------------------------------

Number of tracks:  6
Official DR value: DR12

Samplerate:        96000 Hz
Channels:          2
Bits per sample:   24
Bitrate:           2832 kbps
Codec:             FLAC
================================================================================
По всем вопросам пишите личное сообщение пользователю M0p94ok.
09:15
252
Нет комментариев. Ваш будет первым!