Поиск

1958 Stan Getz, Oscar Peterson Trio - Stan Getz and The Oscar Peterson Trio {Music Manager} [24-96]

1958 Stan Getz, Oscar Peterson Trio - Stan Getz and The Oscar Peterson Trio {Music Manager} [24-96]
Дата записи диска:
10 октября 1957
Место записи:
Capitol Recording Studios, Hollywood, CA, USA
Издатель (лейбл):
Носитель:
WEB
Формат:
PCM
Тип рипа:
tracks
Контейнер:
FLAC (*.flac)
Количество каналов:
2.0
Разрядность/ЧД:
24/48
Битрейт аудио:
lossless
Время звучания:
00:42:32
Наличие сканов:
только обложка

1. I Want To Be Happy  07:34
2. Pennies From Heaven  05:11
3. Ballad Medley  10:07
4. I'm Glad There Is You  04:38
5. Tour's End  04:54
6. I Was Doing All Right  04:06
7. Bronx Blues  05:30

Состав:
  • Ray Brown    Bass
  • Dennis Drake    Remastering
  • Herb Ellis    Composer, Guitar
  • Stan Getz    Composer, Sax (Tenor)
  • Norman Granz    Producer
  • Nat Hentoff    Liner Notes
  • Oscar Peterson    Piano
  • Val Valentin    Engineer
Лог проверки качества
foobar2000 1.4.6 / Dynamic Range Meter 1.1.1
log date: 2021-07-05 20:33:12

--------------------------------------------------------------------------------
Analyzed: Stan Getz / Stan Getz and The Oscar Peterson Trio
--------------------------------------------------------------------------------

DR         Peak         RMS     Duration Track
--------------------------------------------------------------------------------
DR10      -0.01 dB   -12.84 dB      7:37 01-I Want to Be Happy
DR11      -0.07 dB   -14.23 dB      5:19 02-Pennies from Heaven
DR12      -0.05 dB   -16.49 dB     10:13 03-Ballad Medley
DR12      -0.02 dB   -15.08 dB      4:41 04-I'm Glad There Is You
DR12      -0.02 dB   -13.96 dB      4:58 05-Tour's End
DR11      -0.03 dB   -15.06 dB      4:11 06-I Was Doing All Right
DR12      -0.05 dB   -15.77 dB      5:34 07-Bronx Blues
--------------------------------------------------------------------------------

Number of tracks:  7
Official DR value: DR11

Samplerate:        48000 Hz
Channels:          2
Bits per sample:   24
Bitrate:           831 kbps
Codec:             FLAC
================================================================================
Приватный:
Нет (DHT включён)
Размер:
273.13 Мб (286,400,458 байт) » файлов: 13
Участники:
0 раздают, 0 качают (0 участников всего)
Внешние участники:
--- [ Обновить ]
13:20
476
Нет комментариев. Ваш будет первым!