Поиск

2019 Past Present & Tortusa - Eternal Return {Jazzland} [24-96]

2019 Past Present & Tortusa - Eternal Return {Jazzland} [24-96]
Дата издания диска:
19 сентября 2019
Издатель (лейбл):
Носитель:
WEB
Формат:
PCM
Тип рипа:
tracks
Контейнер:
FLAC (*.flac)
Количество каналов:
2.0
Разрядность/ЧД:
24/96
Битрейт аудио:
lossless
Время звучания:
00:42:55
Наличие сканов:
только обложка
Страна-производитель диска (релиза):
Norway

Треклист:

1. Part 1 - Nowhere  21:01
2. Part 2 -Black Mist  08:20
3. Part 3 - Dawn of Hope  13:32

Состав:
  • Simen Kiil Halvorsen, trumpet
  • Alexander Hoholm, double bass
  • John Derek Bishop, live sampling
Доп. инфо:

Оркестр трех человек.

Это захватывающее сотрудничество представляет собой новую волну новых музыкантов, которые включают в себя электронику и живое семплирование. Past Present и Tortusa улавливают резонансные вибрации своих акустических инструментов, добавляют уникальные текстурные голоса и звуковые манипуляции Tortusa и вместе создают уникальный звук с сильной индивидуальностью.

«Вечное возвращение» - это антиутопическая сказка, рассказанная в трех главах. Он начинается с трека «Нигде», представляющего прекрасную утопическую мечту, за ним следует «Черный туман», где конфликты и отчаяние стали нормой, а последняя глава «Рассвет надежды» приносит свет и надежду на новое и лучшее. будущее. Альбом обладает медитативным, мрачно-задумчивым качеством, когда трио исследует глубину и широту каждого настроения, которое вызывает музыка. Они не оставляют камня на камне. Это настоящий органический опыт, созданный коллективной импровизацией с чередованием некоторых составных частей, чтобы придать повествовательную целостность всему альбому.

Трио состоит из трех опытных музыкантов, ранее неоднократно сотрудничавших и получивших признание. Тортуса занимается музыкой вместе с Эйвиндом Аарсетом и Яном Бангом и был номинирован на норвежскую Грэмми за свой сольный альбом, выпущенный на Jazzland Recordings в 2016 году. Симен Кийл Халворсен и Александр Хохольм недавно выпустили альбом с саксофонистом Эндрю Д'Анджело, и все трое получили несколько наград и грантов за свои музыкальные произведения.

Лог проверки качества
foobar2000 1.6.2 / Dynamic Range Meter 1.1.1
log date: 2021-12-13 12:31:25

--------------------------------------------------------------------------------
Analyzed: Past Present & Tortusa / Eternal Return
--------------------------------------------------------------------------------

DR         Peak         RMS     Duration Track
--------------------------------------------------------------------------------
DR11      -0.45 dB   -14.94 dB     21:02 01-Part 1 - Nowhere
DR10      -0.45 dB   -13.43 dB      8:20 02-Part 2 - Black Mist
DR10      -0.45 dB   -13.72 dB     13:33 03-Part 3 - Dawn of Hope
--------------------------------------------------------------------------------

Number of tracks:  3
Official DR value: DR10

Samplerate:        96000 Hz
Channels:          2
Bits per sample:   24
Bitrate:           2622 kbps
Codec:             FLAC
================================================================================
По всем вопросам пишите личное сообщение пользователю M0p94ok.
12:43
253
Нет комментариев. Ваш будет первым!