Поиск

2020 Det Norske Jentekor - Stille Grender {2L} [24-176.4]

2020 Det Norske Jentekor - Stille Grender {2L} [24-176.4]
Стили:
Дата издания диска:
13 ноября 2020
Издатель (лейбл):
Битрейт аудио:
lossless
Доп. инфо:

Формат записи/Источник записи: [TR24][OF]
Наличие водяных знаков: Нет
Год издания/переиздания диска: 2020
Продолжительность: 01:32:56 (00:57:21 + 00:35:35)
Наличие сканов в содержимом раздачи: Буклет PDF
Источник (релизер): highresaudio

Контейнер: FLAC (*.flac)
Тип рипа: tracks
Разрядность: 24/176,4
Формат: PCM
Количество каналов: 2.0
Доп. информация:
http://www.tordgustavsen.com/
http://www.tordg.no/
Первый диск – рождественские гимны в джазовой интерпретации, второй – сольная запись Торда (в лучших его традициях!).

Лог проверки качества
foobar2000 1.1.15 / Dynamic Range Meter 1.1.1
log date: 2021-04-22 12:09:20

--------------------------------------------------------------------------------
Analyzed: Det Norske Jentekor; Anne Karin Sundal-Ask / stille grender (1-3)
          Tord Gustavsen; Det Norske Jentekor; Anne Karin Sundal-Ask / stille grender (4-13)
          Tord Gustavsen / stille grender (14-15)
--------------------------------------------------------------------------------

DR         Peak         RMS     Duration Track
--------------------------------------------------------------------------------
DR13      -2.19 dB   -21.12 dB      3:05 04-Deilig er den himmel bl å
DR15      -8.46 dB   -28.66 dB      2:18 05-Jul i svingen
DR12     -14.29 dB   -31.24 dB      2:33 08-Eg veit i himmerik ei borg
DR13      -0.21 dB   -19.14 dB      2:06 01-Carol of the Bells
DR13      -0.99 dB   -19.52 dB      2:50 03-Det lyser i stille grender
DR12      -4.77 dB   -23.68 dB      2:24 06-Glade jul (Stille natt)
DR12      -1.65 dB   -17.47 dB      3:45 07-Joleklokker over jorda
DR13      -1.97 dB   -22.33 dB      4:03 09-Jul, jul, str ålande jul
DR13      -1.09 dB   -20.62 dB      6:29 10-Jeg er s å glad hver julekveld
DR12      -1.18 dB   -17.92 dB      3:32 11-N å tennes tusen julelys
DR14      -0.35 dB   -20.06 dB      8:28 12-Mitt hjerte alltid vanker
DR11       0.00 dB   -15.69 dB      5:48 13-Folkefrelsar
DR12      -0.41 dB   -17.84 dB      3:42 15-Deilig er jorden
DR13      -2.44 dB   -21.50 dB      2:05 02-The Bells
DR12      -0.22 dB   -17.96 dB      4:15 14-Ljoset nytt i natti rann
--------------------------------------------------------------------------------

Number of tracks:  15
Official DR value: DR13

Samplerate:        176400 Hz
Channels:          2
Bits per sample:   24
Bitrate:           3514 kbps
Codec:             FLAC
================================================================================

foobar2000 1.1.15 / Dynamic Range Meter 1.1.1
log date: 2021-04-21 22:04:34

--------------------------------------------------------------------------------
Analyzed: Tord Gustavsen / stille grender (solo piano)
--------------------------------------------------------------------------------

DR         Peak         RMS     Duration Track
--------------------------------------------------------------------------------
DR13      -0.63 dB   -19.58 dB      6:04 01-ved myrke midnattstid
DR11      -0.88 dB   -17.32 dB      1:58 02-sjelenes pilgrimsgang
DR14      -0.31 dB   -20.57 dB      2:56 03-ingen krok er m ørk
DR12      -1.19 dB   -18.64 dB      2:36 04-inkarnasjon I
DR12      -9.16 dB   -30.07 dB      1:22 05-inkarnasjon II
DR12      -0.23 dB   -17.01 dB      3:15 06-inkarnasjon III
DR11      -5.28 dB   -21.55 dB      1:21 07-inkarnasjon IV
DR14      -1.58 dB   -21.86 dB      4:14 08-til lave hytter
DR12      -0.32 dB   -17.75 dB      4:05 09-Ljoset nytt i natti rann
DR15      -5.05 dB   -28.45 dB      3:14 10-inkarnasjon V
DR16      -8.18 dB   -30.66 dB      4:29 11-inkarnasjon VI
--------------------------------------------------------------------------------

Number of tracks:  11
Official DR value: DR13

Samplerate:        176400 Hz
Channels:          2
Bits per sample:   24
Bitrate:           3365 kbps
Codec:             FLAC
================================================================================
No seeders - write personal message to M0p94ok. Any questions - support@pro-jazz.com.
Нет сидеров - пишите в личку M0p94ok. Есть вопросы - support@pro-jazz.com
17:12
50
Нет комментариев. Ваш будет первым!