Поиск

2015 Klaus Doldinger's Passport - En Route {Warner Music} [24-44.1]

2015 Klaus Doldinger's Passport - En Route {Warner Music} [24-44.1]
Дата издания диска:
8 мая 2015
Издатель (лейбл):
Битрейт аудио:
lossless
Доп. инфо:

Формат записи/Источник записи: [TR24][OF]
Год издания/переиздания диска: 2015
Продолжительность: 01:09:31
Наличие сканов в содержимом раздачи: Нет

Контейнер: FLAC (*.flac)
Тип рипа: tracks
Разрядность: 24/44,1
Количество каналов: 2.0

Источник (релизер): Qobuz

Лог проверки качества
foobar2000 1.4.3 / Dynamic Range Meter 1.1.1
log date: 2021-04-21 17:39:53

--------------------------------------------------------------------------------
Analyzed: Klaus Doldinger / En Route
--------------------------------------------------------------------------------

DR         Peak         RMS     Duration Track
--------------------------------------------------------------------------------
DR9       -0.72 dB   -11.43 dB      7:36 01-Seven to Four
DR9       -0.72 dB   -11.65 dB      6:57 02-Polysadness
DR8       -0.72 dB   -10.02 dB      5:34 03-Infusion Rag
DR9       -0.72 dB   -12.33 dB      6:11 04-Dreaming Far Away
DR7       -0.72 dB    -9.92 dB      4:51 05-Stratosport
DR9       -0.72 dB   -11.49 dB      5:51 06-Hopegiving
DR9       -0.72 dB   -11.23 dB      6:25 07-Marock
DR10      -0.72 dB   -12.38 dB      6:20 08-Blue Kind of Mind
DR11      -0.72 dB   -15.33 dB      8:01 09-Dark Flame  (Live)
DR8       -0.72 dB   -11.27 dB     11:45 10-Playground Jam  (Live)
--------------------------------------------------------------------------------

Number of tracks:  10
Official DR value: DR9

Samplerate:        44100 Hz
Channels:          2
Bits per sample:   24
Bitrate:           1593 kbps
Codec:             FLAC
================================================================================
No seeders - write personal message to M0p94ok. Any questions - support@pro-jazz.com.
Нет сидеров - пишите в личку M0p94ok. Есть вопросы - support@pro-jazz.com
17:53
46
Нет комментариев. Ваш будет первым!