Поиск

1959 Morgana King - The Greatest Songs Ever Swung! (2019) {RevOla} [24-44.1]

1959 Morgana King - The Greatest Songs Ever Swung! (2019) {RevOla} [24-44.1]
Стили:
Дата переиздания диска:
2 июля 2019
Издатель (лейбл):
Битрейт аудио:
lossless
Доп. инфо:

Формат записи/Источник записи: [TR24][OF]
Издание: Remastered
Год издания/переиздания диска: 1959/2019
Продолжительность: 00:26:34
Наличие сканов в содержимом раздачи: Нет

Контейнер: FLAC (*.flac)
Тип рипа: tracks
Разрядность: 24/44,1
Количество каналов: 2.0

Источник (релизер): Qobuz

Лог проверки качества
foobar2000 1.4.3 / Dynamic Range Meter 1.1.1
log date: 2021-04-07 15:52:46

--------------------------------------------------------------------------------
Analyzed: Morgana King / The Greatest Songs Ever Swung!
--------------------------------------------------------------------------------

DR         Peak         RMS     Duration Track
--------------------------------------------------------------------------------
DR11      -4.09 dB   -18.87 dB      1:59 01, 01-Just You, Just Me (Remastered)
DR10      -4.14 dB   -17.71 dB      3:23 02, 02-And the Angels Sing (Remastered)
DR9       -3.41 dB   -16.08 dB      2:43 03, 03-Take the 'A' Train (Remastered)
DR8       -3.30 dB   -14.99 dB      2:59 04, 04-I Can't Get Started (Remastered)
DR10      -4.12 dB   -17.24 dB      2:20 05, 05-Lullaby of Birdland (Remastered)
DR9       -3.85 dB   -18.02 dB      2:37 06, 06-A Foggy Day (Remastered)
DR10      -4.06 dB   -17.87 dB      2:12 07, 07-How High the Moon (Remastered)
DR9       -3.69 dB   -17.53 dB      1:55 08, 08-Perdido (Remastered)
DR9       -3.31 dB   -16.92 dB      3:55 09, 09-Lonesome Road (Remastered)
DR9       -3.42 dB   -16.68 dB      2:37 10, 10-At Sundown (Remastered)
--------------------------------------------------------------------------------

Number of tracks:  10
Official DR value: DR9

Samplerate:        44100 Hz
Channels:          2
Bits per sample:   24
Bitrate:           1480 kbps
Codec:             FLAC
================================================================================
No seeders - write personal message to M0p94ok. Any questions - support@pro-jazz.com.
Нет сидеров - пишите в личку M0p94ok. Есть вопросы - support@pro-jazz.com
19:09
48
Нет комментариев. Ваш будет первым!