Поиск

2021 Cymin Samawatie - Trickster Orchestra {ECM} [24-88.2]

2021 Cymin Samawatie - Trickster Orchestra {ECM} [24-88.2]
Стили:
Издатель (лейбл):
Битрейт аудио:
lossless
Доп. инфо:

Формат записи/Источник записи: [TR24][OF]
Наличие водяных знаков: Нет
Год издания: 2021
Продолжительность: 01:01:15
Наличие сканов в содержимом раздачи: Буклет PDF
Контейнер: FLAC (*.flac)
Тип рипа: tracks
Разрядность: 24/88.2
Формат: PCM
Количество каналов: 2.0
Источник (релизер): highresaudio.com

Лог проверки качества
foobar2000 1.4.8 / Dynamic Range Meter 1.1.1
log date: 2021-04-23 18:25:05

--------------------------------------------------------------------------------
Analyzed: Cymin Samawatie / Trickster Orchestra
--------------------------------------------------------------------------------

DR         Peak         RMS     Duration Track
--------------------------------------------------------------------------------
DR13      -5.52 dB   -23.65 dB      5:05 01-Shir hamaalot
DR14      -1.24 dB   -20.21 dB      7:10 02-Hast Hussle II
DR14      -1.24 dB   -21.04 dB      7:21 03-Hafen Vor Tounsibuurg
DR14      -1.24 dB   -21.86 dB      5:46 04-Tounsibuurg
DR12      -7.24 dB   -23.07 dB      4:18 05-Gebete
DR14      -1.24 dB   -20.28 dB      7:15 06-Modara
DR13      -1.24 dB   -18.48 dB      9:53 07-Kords Kontinuum
DR13      -4.67 dB   -23.11 dB      7:13 08-Keşke
DR12      -1.24 dB   -18.20 dB      7:19 09-Por se ssedaa
--------------------------------------------------------------------------------

Number of tracks:  9
Official DR value: DR13
Samplerate:        88200 Hz
Channels:          2
Bits per sample:   24
Bitrate:           2314 kbps
Codec:             FLAC
================================================================================
No seeders - write personal message to M0p94ok. Any questions - support@pro-jazz.com.
Нет сидеров - пишите в личку M0p94ok. Есть вопросы - support@pro-jazz.com
11:48
45
Нет комментариев. Ваш будет первым!