Поиск

2021 New Faces - New Sounds {Posi Tone} [24-88.2]

2021 New Faces - New Sounds {Posi Tone} [24-88.2]
Дата записи диска:
25 сентября 2019
Место записи:
Acoustic Recording, Brooklyn, NY
Дата издания диска:
8 января 2021
Издатель (лейбл):
Битрейт аудио:
lossless
Доп. инфо:

Posi-Tone Records выпускает второй том «New Faces» с музыкальным посланием, которое по-прежнему сосредоточено на «New Sounds». Эта группа "New Faces" (трубач Брэндон Ли, альт-саксофонист Маркус Хауэлл, тенор-саксофонист Николь Гловер, пианистка Кейли О'Догерти, басист Ади Мейерсон и барабанщик Кори Кокс) была собрана и отправлена под руководством продюсера Марка Фри для изучения страны чудес мелодичных загадок и гармонических возможностей. Выступления этих начинающих артистов специально предназначены для того, чтобы дать вам представление о музыкальной эстетике и рабочем духе Posi-Tone Records, с увлекательной программой свежих композиций и несколькими мрачными жемчужинами из предыдущих релизов лейбла. Найдите минутку, чтобы расслабиться и ощутить «Новые звуки» этих талантливых артистов, которые работают над тем, чтобы дать вам возможность насладиться более восхитительным сегодняшним днем и более ярким завтра.

Формат записи/Источник записи: [TR24][OF]
Год издания/переиздания диска: 2021
Продолжительность: 00:53:42
Наличие сканов в содержимом раздачи: Нет

Контейнер: FLAC (*.flac)
Тип рипа: tracks
Разрядность: 24/88,2
Количество каналов: 2.0

Источник (релизер): HDTracks

Лог проверки качества
foobar2000 1.4.3 / Dynamic Range Meter 1.1.1
log date: 2021-04-21 06:36:02

--------------------------------------------------------------------------------
Analyzed: New Faces / New Sounds
--------------------------------------------------------------------------------

DR         Peak         RMS     Duration Track
--------------------------------------------------------------------------------
DR10      -0.98 dB   -12.64 dB      6:00 01-Shades Of Brown
DR10      -0.98 dB   -12.89 dB      5:59 02-Whistleblower
DR10      -0.98 dB   -13.48 dB      4:08 03-Afloat
DR11      -0.98 dB   -13.57 dB      5:34 04-Stop Gap
DR11      -0.98 dB   -15.04 dB      5:39 05-Hold My Heart
DR11      -0.98 dB   -13.36 dB      5:12 06-Second Wind
DR10      -0.98 dB   -12.46 dB      5:06 07-Blues For Tangier
DR11      -0.98 dB   -13.96 dB      4:17 08-Luna Lovejoy
DR10      -0.98 dB   -13.63 dB      5:44 09-Runaway
DR10      -0.98 dB   -12.45 dB      6:07 10-Trapezoid
--------------------------------------------------------------------------------

Number of tracks:  10
Official DR value: DR10

Samplerate:        88200 Hz
Channels:          2
Bits per sample:   24
Bitrate:           2876 kbps
Codec:             FLAC
================================================================================
No seeders - write personal message to M0p94ok. Any questions - support@pro-jazz.com.
Нет сидеров - пишите в личку M0p94ok. Есть вопросы - support@pro-jazz.com
12:58
66
Нет комментариев. Ваш будет первым!