Поиск

1961 Peggy Lee - Peggy At Basin Street East (2020) {RevOla} [24-44.1]

1961 Peggy Lee - Peggy At Basin Street East (2020) {RevOla} [24-44.1]
Стили:
Дата переиздания диска:
31 января 2020
Издатель (лейбл):
Битрейт аудио:
lossless
Доп. инфо:

Формат записи/Источник записи: [TR24][OF]
Издание: Remastered
Год издания/переиздания диска: 1961/2020
Продолжительность: 00:56:23
Наличие сканов в содержимом раздачи: Нет

Контейнер: FLAC (*.flac)
Тип рипа: tracks
Разрядность: 24/44,1
Количество каналов: 2.0

Источник (релизер): Qobuz

Лог проверки качества
foobar2000 1.6.2 / Dynamic Range Meter 1.1.1
log date: 2021-01-16 21:45:26

--------------------------------------------------------------------------------
Analyzed: Peggy Lee / Peggy At Basin Street East
--------------------------------------------------------------------------------

DR         Peak         RMS     Duration Track
--------------------------------------------------------------------------------
DR12      -2.54 dB   -17.71 dB      1:36 01-Overture (Live, Remastered)
DR11      -1.92 dB   -15.30 dB      1:47 02-Day In - Day Out (Live, Remastered)
DR12      -2.11 dB   -17.39 dB      2:33 03-Call Me Darling (Live, Remastered)
DR11      -2.32 dB   -16.51 dB      4:16 04-Medley; One Kiss-My Romance.... (Live, Remastered)
DR15      -2.51 dB   -24.10 dB      5:47 05-Medley; But Beautiful-The Second Time Around (Live, Remastered)
DR15      -2.23 dB   -20.90 dB      2:59 06-Fever (Live, Remastered)
DR11      -2.03 dB   -16.63 dB      3:47 07-I'm Gonna Go Fishin' (Live, Remastered)
DR12      -1.26 dB   -15.89 dB      2:33 08-I Love Being Here With You (Live, Remastered)
DR16      -3.12 dB   -23.22 dB      3:57 09-By Myself (Live, Remastered)
DR12      -1.40 dB   -15.62 dB      1:57 10-Heart (Live, Remastered)
DR16      -3.40 dB   -26.19 dB      4:08 11-I've Never Left Your Arms (Live, Remastered)
DR12      -1.67 dB   -17.94 dB     14:30 12-Ray Charles Tribute; Hallelujah, I Love Him So... (Live, Remastered)
DR12      -1.98 dB   -20.22 dB      1:24 13-Peggy Lee Bow Music (Live, Remastered)
DR11      -1.52 dB   -17.47 dB      5:20 14-Medley; I Don't Know Enough About You.... (Live, Remastered)
--------------------------------------------------------------------------------

Number of tracks:  14
Official DR value: DR13

Samplerate:        44100 Hz
Channels:          2
Bits per sample:   24
Bitrate:           1439 kbps
Codec:             FLAC
================================================================================
No seeders - write personal message to M0p94ok. Any questions - support@pro-jazz.com.
Нет сидеров - пишите в личку M0p94ok. Есть вопросы - support@pro-jazz.com
17:14
56
Нет комментариев. Ваш будет первым!