Поиск

2021 André Manoukian - Les Pianos de Gainsbourg {Universal} [24-88.2]

2021 André Manoukian - Les Pianos de Gainsbourg {Universal} [24-88.2]
Стили:
Дата издания диска:
24 апреля 2021
Издатель (лейбл):
Битрейт аудио:
lossless
Доп. инфо:

Формат записи/Источник записи: [TR24][OF]
Наличие водяных знаков: Нет
Год издания/переиздания диска: 2021
Продолжительность: 00:42:52
Наличие сканов в содержимом раздачи: Только обложка альбома
Источник (релизер): highresaudio

Контейнер: FLAC (*.flac)
Тип рипа: tracks
Разрядность: 24/88,2
Формат: PCM
Количество каналов: 2.0

Лог проверки качества
foobar2000 1.6 / Dynamic Range Meter 1.1.1
log date: 2021-04-23 17:07:38

--------------------------------------------------------------------------------
Analyzed: André Manoukian / Les pianos de Gainsbourg
--------------------------------------------------------------------------------

DR         Peak         RMS     Duration Track
--------------------------------------------------------------------------------
DR8       -0.20 dB   -10.32 dB      3:08 01-La javanaise
DR8       -0.20 dB   -10.21 dB      2:42 02-L'eau à la bouche
DR8       -0.20 dB    -9.62 dB      3:03 03-Ce mortel ennui
DR9       -0.20 dB   -11.53 dB      3:34 04-Black trombone
DR9       -0.20 dB   -11.18 dB      5:19 05-Le poinçonneur des Lilas
DR8       -0.35 dB   -10.54 dB      2:44 06-Baby Alone In Babylone
DR9       -0.20 dB   -11.51 dB      3:49 07-L'anamour
DR8       -0.20 dB   -10.62 dB      2:57 08-Sous le soleil exactement
DR10      -0.20 dB   -11.25 dB      3:44 09-Elaeudanla Téïtéïa
DR9       -0.20 dB   -10.74 dB      3:41 10-La chanson de Prévert
DR9       -0.20 dB   -10.35 dB      4:49 11-La femme des uns sous le corps des autres
DR8       -0.20 dB   -11.30 dB      3:23 12-Je suis venu te dire que je m'en vais
--------------------------------------------------------------------------------

Number of tracks:  12
Official DR value: DR9

Samplerate:        88200 Hz
Channels:          2
Bits per sample:   24
Bitrate:           2523 kbps
Codec:             FLAC
================================================================================
No seeders - write personal message to M0p94ok. Any questions - support@pro-jazz.com.
Нет сидеров - пишите в личку M0p94ok. Есть вопросы - support@pro-jazz.com
10:32
49
Нет комментариев. Ваш будет первым!