Поиск

2021 Parry Ray - Out Of The Shadows {FrtyFve} [24-48]

2021 Parry Ray - Out Of The Shadows {FrtyFve} [24-48]
Стили:
Дата издания диска:
7 января 2021
Битрейт аудио:
lossless
Доп. инфо:

Формат записи/Источник записи: [TR24][OF]
Год издания/переиздания диска: 2021
Издатель (лейбл): FrtyFve
Продолжительность: 00:42:12
Наличие сканов в содержимом раздачи: Нет

Контейнер: FLAC (*.flac)
Тип рипа: tracks
Разрядность: 24/48
Количество каналов: 2.0

Источник (релизер): Qobuz

Лог проверки качества
foobar2000 1.6.2 / Dynamic Range Meter 1.1.1
log date: 2021-01-10 15:34:28

--------------------------------------------------------------------------------
Analyzed: Parry Ray / Out Of The Shadows
--------------------------------------------------------------------------------

DR         Peak         RMS     Duration Track
--------------------------------------------------------------------------------
DR9        0.00 dB   -10.57 dB      3:40 01-All That Jazz
DR9       -0.30 dB   -13.05 dB      4:24 02-She Used To Be Mine
DR9       -0.30 dB   -10.84 dB      4:30 03-Trust In Me
DR11      -0.30 dB   -12.77 dB      3:59 04-My Ship
DR10      -0.30 dB   -12.79 dB      5:08 05-Maybe This Time
DR9       -0.30 dB   -12.15 dB      3:04 06-Accustomed To His Face
DR9       -0.30 dB   -12.34 dB      4:24 07-Send In The Clowns
DR11      -0.31 dB   -13.07 dB      4:21 08-Losing My Mind
DR9       -0.30 dB   -11.22 dB      4:08 09-Someone to Watch Over Me
DR8       -0.30 dB   -10.98 dB      4:39 10-You Will Be Found
--------------------------------------------------------------------------------

Number of tracks:  10
Official DR value: DR9

Samplerate:        48000 Hz
Channels:          2
Bits per sample:   24
Bitrate:           1631 kbps
Codec:             FLAC
================================================================================
No seeders - write personal message to M0p94ok. Any questions - support@pro-jazz.com.
Нет сидеров - пишите в личку M0p94ok. Есть вопросы - support@pro-jazz.com
12:50
52
Нет комментариев. Ваш будет первым!