Вы используете незарегистрированную версию компонента "Вкладки"!

Поиск

2021 Jennifer Wharton's Bonegasm - Not A Novelty {Sunnyside} [24-96]

2021 Jennifer Wharton's Bonegasm - Not A Novelty {Sunnyside} [24-96]
Стили:
Дата издания диска:
23 апреля 2021
Издатель (лейбл):
Битрейт аудио:
lossless
Лог проверки качества
foobar2000 1.4.2 / Dynamic Range Meter 1.1.1
log date: 2021-04-26 20:11:48

--------------------------------------------------------------------------------
Analyzed: Jennifer Wharton's Bonegasm / Not A Novelty
--------------------------------------------------------------------------------

DR         Peak         RMS     Duration Track
--------------------------------------------------------------------------------
DR10      -1.31 dB   -13.21 dB      4:46 01-BonGasmo
DR10      -1.31 dB   -13.57 dB      6:13 02-Face Value
DR9       -1.31 dB   -13.13 dB      6:37 03-Ice Fall
DR9       -1.31 dB   -12.71 dB      7:39 04-Blue Salt
DR9       -1.31 dB   -12.24 dB      5:47 05-Union Blues
DR9       -1.30 dB   -13.63 dB      5:53 06-Twinkle
DR10      -1.31 dB   -13.46 dB      9:51 07-Manta Rays
DR9       -1.31 dB   -12.17 dB      5:34 08-La Otra Mano
DR9       -1.31 dB   -12.34 dB      7:41 09-Little Cupcake
DR9       -1.31 dB   -12.24 dB      6:07 10-The Day I Tried To Live
--------------------------------------------------------------------------------

Number of tracks:  10
Official DR value: DR9

Samplerate:        96000 Hz
Channels:          2
Bits per sample:   24
Bitrate:           2909 kbps
Codec:             FLAC
================================================================================
Any questions - support@pro-jazz.com. Есть вопросы - support@pro-jazz.com
14:09
73
Нет комментариев. Ваш будет первым!