Поиск

2016 Rale Micic, John Abercrombie, Peter Bernstein, Lage Lund - Inspired {ArtistShare} [24-48]

2016 Rale Micic, John Abercrombie, Peter Bernstein, Lage Lund - Inspired {ArtistShare} [24-48]
Дата записи диска:
28 февраля 2016
Место записи:
Sear Sound Studio, New York City, NY, USA
Номер по каталогу:
AS0146
Битрейт аудио:
lossless
Доп. инфо:

Формат записи/Источник записи: [TR24][OF]
Наличие водяных знаков: Нет
Год издания/переиздания диска: 2016
Издатель (лейбл): ArtistShare
Продолжительность: 00:53:52
Наличие сканов в содержимом раздачи: Буклет PDF

Контейнер: FLAC (*.flac)
Тип рипа: tracks
Разрядность: 24/48
Формат: LPCM
Количество каналов: 2.0

Источник (релизер):apple.com (neilneil)

Лог проверки качества
foobar2000 1.4.6 / Замер динамического диапазона (DR) 1.1.1
Дата отчёта:  2021-04-27 07:44:37

--------------------------------------------------------------------------------
Анализ:   Rale Micic, John Abercrombie, Peter Bernstein, Lage Lund / 2016 - Inspired
--------------------------------------------------------------------------------

DR         Пики         RMS           Продолжительность трека
--------------------------------------------------------------------------------
DR13      -1.61 дБ   -17.15 дБ      4:22 01-Dream Steps (J. Hall)
DR12      -1.64 дБ   -17.42 дБ      2:08 02-Alone Together (H. Dietz)
DR11      -0.40 дБ   -16.75 дБ      5:06 03-Bon Ami (J. Hall)
DR13      -1.40 дБ   -17.71 дБ      5:45 04-My Funny Valentine (L. Hart, R. Rogers)
DR13      -0.39 дБ   -18.11 дБ      5:30 05-I'm Getting Sentimental Over You (G. Bassman, N. Washington)
DR12      -0.38 дБ   -16.06 дБ      9:30 06-All Across the City (J. Hall, Arr. R.Micic)
DR12      -3.19 дБ   -18.57 дБ      3:42 07-My Ideal (L. Robin, R. Whiting, N. Chase)
DR12      -0.40 дБ   -16.57 дБ      4:16 08-I Should Care (S. Cahn, A. Stordahl, P. Weston)
DR12      -2.88 дБ   -18.64 дБ      3:18 09-Body and Soul (E. Heyman, R. Sour, F. Eyton, J. Green)
DR13      -0.39 дБ   -17.20 дБ      5:27 10-I Hear a Rhapsody (G. Fragos, J. Baker, D. Gasparre)
DR11      -3.48 дБ   -18.44 дБ      4:48 11-Embraceable You (G. Gershwin, I. Gershwin)
--------------------------------------------------------------------------------

Количество треков: 11
Реальные значения DR: DR12

Частота:   48000 Гц
Каналов:   2
Разрядность:   24
Битрейт:   1187 кбит/с
Кодек:   FLAC
================================================================================
No seeders - write personal message to M0p94ok. Any questions - support@pro-jazz.com.
Нет сидеров - пишите в личку M0p94ok. Есть вопросы - support@pro-jazz.com
15:46
55
Нет комментариев. Ваш будет первым!