Поиск

1954 Sarah Vaughan - Images (2020) {Verve} [24-192]

1954 Sarah Vaughan - Images (2020) {Verve} [24-192]
Стили:
Дата издания диска:
19 марта 1954
Издатель (лейбл):
Битрейт аудио:
lossless
Доп. инфо:

Формат записи/Источник записи: [TR24][OF]
Издание: Remastered
Год издания/переиздания диска: 1954/2020
Продолжительность: 00:22:43
Наличие сканов в содержимом раздачи: Нет

Контейнер: FLAC (*.flac)
Тип рипа: tracks
Разрядность: 24/192
Количество каналов: 2.0

Источник (релизер): HDTracks

Лог проверки качества
foobar2000 1.4.3 / Dynamic Range Meter 1.1.1
log date: 2021-04-23 20:38:05

--------------------------------------------------------------------------------
Analyzed: Sarah Vaughan / Images
--------------------------------------------------------------------------------

DR         Peak         RMS     Duration Track
--------------------------------------------------------------------------------
DR10      -0.20 dB   -13.70 dB      3:19 01-Lover Man
DR12      -0.20 dB   -14.14 dB      2:41 02-Shulie A Bop
DR10      -0.20 dB   -13.12 dB      2:35 03-Polka Dots And Moonbeams
DR13      -0.20 dB   -16.12 dB      3:14 04-Body And Soul
DR12      -0.20 dB   -15.35 dB      2:42 05-They Can't Take That Away From Me
DR11      -0.75 dB   -15.24 dB      2:47 06-Prelude To A Kiss
DR11      -0.20 dB   -15.28 dB      3:01 07-You Hit The Spot
DR11      -0.20 dB   -14.66 dB      2:30 08-If I Knew Then (What I Know Now)
--------------------------------------------------------------------------------

Number of tracks:  8
Official DR value: DR11

Samplerate:        192000 Hz
Channels:          2
Bits per sample:   24
Bitrate:           3718 kbps
Codec:             FLAC
================================================================================
No seeders - write personal message to M0p94ok. Any questions - support@pro-jazz.com.
Нет сидеров - пишите в личку M0p94ok. Есть вопросы - support@pro-jazz.com
09:53
44
Нет комментариев. Ваш будет первым!