Поиск

1981 Eddie Harris feat. Don Ellis - The Versatile Eddie Harris (2005) {Rhino Atlantic} [24-192]

1981 Eddie Harris feat. Don Ellis - The Versatile Eddie Harris (2005) {Rhino Atlantic} [24-192]
Стили:
Дата переиздания диска:
26 июля 2005
Издатель (лейбл):
Битрейт аудио:
lossless
Доп. инфо:

Формат записи/Источник записи: [TR24][OF]
Издание: Remastered
Год издания/переиздания диска: 1981/2005
Продолжительность: 00:43:24
Наличие сканов в содержимом раздачи: Нет

Контейнер: FLAC (*.flac)
Тип рипа: tracks
Разрядность: 24/192
Количество каналов: 2.0

Источник (релизер): HDTracks

Лог проверки качества
foobar2000 1.4.3 / Dynamic Range Meter 1.1.1
log date: 2021-04-20 22:44:19

--------------------------------------------------------------------------------
Analyzed: Eddie Harris Feat. Don Ellis / The Versatile Eddie Harris (1-9)
          Various Interprets / The Versatile Eddie Harris (10)
--------------------------------------------------------------------------------

DR         Peak         RMS     Duration Track
--------------------------------------------------------------------------------
DR15      -2.09 dB   -18.71 dB      3:09 01-It's Time to Do What You Want (feat. Don Ellis)
DR12      -6.05 dB   -21.02 dB      3:36 02-Dreams Are for Real (feat. Don Ellis)
DR13      -2.05 dB   -20.08 dB      6:41 03-Dreams and Nightmares (feat. Don Ellis)
DR13      -3.15 dB   -18.59 dB      3:50 04-Sallie's Theme (feat. Don Ellis)
DR11      -6.27 dB   -20.59 dB      3:20 05-No One Would Believe (feat. Don Ellis)
DR14      -6.33 dB   -23.57 dB      5:31 06-That Is Why You're Overweight (feat. Don Ellis)
DR10      -3.86 dB   -17.87 dB      2:29 07-One Man Section (feat. Don Ellis)
DR14      -2.62 dB   -18.42 dB      6:23 09-Brother Wardo (feat. Don Ellis)
DR14      -4.09 dB   -21.11 dB      2:22 10-Love Is Here to Stay (feat. Don Ellis)
DR11      -3.31 dB   -16.80 dB      6:08 08-Steps Up (feat. Don Ellis)
--------------------------------------------------------------------------------

Number of tracks:  10
Official DR value: DR13

Samplerate:        192000 Hz
Channels:          2
Bits per sample:   24
Bitrate:           5045 kbps
Codec:             FLAC
================================================================================
No seeders - write personal message to M0p94ok. Any questions - support@pro-jazz.com.
Нет сидеров - пишите в личку M0p94ok. Есть вопросы - support@pro-jazz.com
16:02
47
Нет комментариев. Ваш будет первым!