Поиск

1961 Latin Jazz Quintet & Eric Dolphy - Caribe (2019) {HDTT} [24-352]

1961 Latin Jazz Quintet & Eric Dolphy - Caribe (2019) {HDTT} [24-352]
Стили:
Дата записи диска:
19 августа 1960
Место записи:
Van Gelder Recording Studio, Englewood Cliffs, New Jersey, USA
Издатель (лейбл):
Битрейт аудио:
lossless
Доп. инфо:

Формат записи/Источник записи: [DXD][OF]
Издание: Remastered
Год издания/переиздания диска: 1961/2019
Издатель (лейбл): HDTT
Продолжительность: 00:37:37
Наличие сканов в содержимом раздачи: Нет

Контейнер: FLAC (*.flac)
Тип рипа: tracks
Разрядность: 24/352
Формат: DXD
Количество каналов: 2.0

Источник (релизер): HDTT

Лог проверки качества
foobar2000 1.4.1 / Dynamic Range Meter 1.1.1
log date: 2021-01-17 12:59:03

--------------------------------------------------------------------------------
Analyzed: The Latin Jazz Quinte & Eric Dolphy  / Caribé - The Latin Jazz Quintet & Eric Dolphy
--------------------------------------------------------------------------------

DR         Peak         RMS     Duration Track
--------------------------------------------------------------------------------
DR11      -1.14 dB   -15.04 dB     10:07 01-Caribé
DR11      -2.51 dB   -15.92 dB      5:44 02-Blues In 6/8
DR11      -3.04 dB   -17.43 dB      4:10 03-First Bass Line
DR12      -1.96 dB   -16.23 dB      6:56 04-Mambo Ricci
DR13      -0.74 dB   -17.71 dB      5:09 05-Spring Is Here
DR12      -2.58 dB   -17.29 dB      6:00 06-Sunday Go Meetin'
--------------------------------------------------------------------------------

Number of tracks:  6
Official DR value: DR12

Samplerate:        352800 Hz
Channels:          2
Bits per sample:   24
Bitrate:           9420 kbps
Codec:             FLAC
================================================================================
No seeders - write personal message to M0p94ok. Any questions - support@pro-jazz.com.
Нет сидеров - пишите в личку M0p94ok. Есть вопросы - support@pro-jazz.com
21:36
42
Нет комментариев. Ваш будет первым!