Поиск

2021 Ida Sand - Do You Hear Me? {ACT Music} [24-48]

2021 Ida Sand - Do You Hear Me? {ACT Music} [24-48]
Стили:
Дата издания диска:
30 апреля 2021
Издатель (лейбл):
Битрейт аудио:
lossless
Доп. инфо:

Формат записи/Источник записи: [TR24][OF]
Наличие водяных знаков: Нет
Год издания: 2021
Продолжительность: 00:44:32
Наличие сканов в содержимом раздачи: Только обложка альбома
Контейнер: FLAC (*.flac)
Тип рипа: tracks
Разрядность: 24/48
Формат: PCM
Количество каналов: 2.0
Источник (релизер): highresaudio.com

Лог проверки качества
foobar2000 1.4.8 / Dynamic Range Meter 1.1.1
log date: 2021-04-29 13:05:20

--------------------------------------------------------------------------------
Analyzed: Ida Sand / Do You Hear Me?
--------------------------------------------------------------------------------

DR         Peak         RMS     Duration Track
--------------------------------------------------------------------------------
DR9       -0.70 dB   -11.49 dB      3:30 01-Wasted on the Youth
DR9       -0.70 dB   -11.56 dB      4:20 02-Burning
DR7       -0.70 dB   -10.62 dB      4:45 03-Can You Hear Me Now
DR10      -0.70 dB   -12.33 dB      5:35 04-Waiting
DR8       -0.70 dB   -10.38 dB      4:34 05-Now Is Not the Time
DR10      -0.70 dB   -12.37 dB      5:25 06-Sweet Child
DR7       -0.70 dB    -9.25 dB      5:16 07-Too Close for Comfort
DR8       -0.70 dB   -10.27 dB      4:14 08-Don't Run Away
DR8       -0.70 dB   -10.35 dB      3:46 09-Let Go
DR10      -0.70 dB   -13.50 dB      3:12 10-Go Be with Her
--------------------------------------------------------------------------------

Number of tracks:  10
Official DR value: DR9
Samplerate:        48000 Hz
Channels:          2
Bits per sample:   24
Bitrate:           1527 kbps
Codec:             FLAC
================================================================================
No seeders - write personal message to M0p94ok. Any questions - support@pro-jazz.com.
Нет сидеров - пишите в личку M0p94ok. Есть вопросы - support@pro-jazz.com
13:28
44
Нет комментариев. Ваш будет первым!